Author: Not specified Language: text
Description: Not specified Timestamp: 2018-05-27 08:25:13 +0000
View raw paste Child paste by: Not specified Reply
  1. General
  2. Unique ID                   : 183852101558169429812397716038591569374 (0x8A50A07431000AF4BBF10BD27E09DDDE)
  3. Complete name               : D:\N\Iron.Man.2008.REMASTERED.1080p.BluRay.x264.DD5.1-Pahe.in.mkv
  4. Format                      : Matroska
  5. Format version              : Version 4 / Version 2
  6. File size                   : 3.30 GiB
  7. Duration                    : 2 h 6 min
  8. Overall bit rate            : 3 744 kb/s
  9. Movie name                  : Iron Man (2008) - 4K Remaster
  10. Encoded date                : UTC 2018-05-26 05:11:10
  11. Writing application         : mkvmerge v15.0.0 ('Duel with the Devil') 64-bit
  12. Writing library             : libebml v1.3.5 + libmatroska v1.4.5
  13. Cover                       : Yes
  14. Attachments                 : cover.jpg
  15. Encoded by                  : ʕ·ᴥ· ʔ Pahe.in
  16.  
  17. Video
  18. ID                          : 1
  19. Format                      : AVC
  20. Format/Info                 : Advanced Video Codec
  21. Format profile              : High@L4.1
  22. Format settings             : CABAC / 5 Ref Frames
  23. Format settings, CABAC      : Yes
  24. Format settings, ReFrames   : 5 frames
  25. Codec ID                    : V_MPEG4/ISO/AVC
  26. Duration                    : 2 h 6 min
  27. Bit rate                    : 3 358 kb/s
  28. Width                       : 1 920 pixels
  29. Height                      : 804 pixels
  30. Display aspect ratio        : 2.40:1
  31. Frame rate mode             : Constant
  32. Frame rate                  : 23.976 (24000/1001) FPS
  33. Color space                 : YUV
  34. Chroma subsampling          : 4:2:0
  35. Bit depth                   : 8 bits
  36. Scan type                   : Progressive
  37. Bits/(Pixel*Frame)          : 0.091
  38. Stream size                 : 2.96 GiB (90%)
  39. Writing library             : x264 core 152 r2851 ba24899
  40. Encoding settings           : cabac=1 / ref=5 / deblock=1:-3:-3 / analyse=0x3:0x133 / me=umh / subme=10 / psy=1 / psy_rd=1.00:0.15 / mixed_ref=1 / me_range=48 / chroma_me=1 / trellis=2 / 8x8dct=1 / cqm=0 / deadzone=21,11 / fast_pskip=0 / chroma_qp_offset=-3 / threads=18 / lookahead_threads=3 / sliced_threads=0 / nr=0 / decimate=0 / interlaced=0 / bluray_compat=0 / constrained_intra=0 / bframes=8 / b_pyramid=2 / b_adapt=2 / b_bias=0 / direct=3 / weightb=1 / open_gop=0 / weightp=2 / keyint=250 / keyint_min=23 / scenecut=40 / intra_refresh=0 / rc_lookahead=60 / rc=crf / mbtree=0 / crf=24.6 / qcomp=0.60 / qpmin=0 / qpmax=69 / qpstep=4 / vbv_maxrate=35000 / vbv_bufsize=30000 / crf_max=0.0 / nal_hrd=none / filler=0 / ip_ratio=1.30 / pb_ratio=1.20 / aq=3:0.80
  41. Default                     : Yes
  42. Forced                      : No
  43. Color range                 : Limited
  44. Matrix coefficients         : BT.709
  45.  
  46. Audio
  47. ID                          : 2
  48. Format                      : AC-3
  49. Format/Info                 : Audio Coding 3
  50. Codec ID                    : A_AC3
  51. Duration                    : 2 h 6 min
  52. Bit rate mode               : Constant
  53. Bit rate                    : 384 kb/s
  54. Channel(s)                  : 6 channels
  55. Channel positions           : Front: L C R, Side: L R, LFE
  56. Sampling rate               : 48.0 kHz
  57. Frame rate                  : 31.250 FPS (1536 SPF)
  58. Bit depth                   : 16 bits
  59. Compression mode            : Lossy
  60. Stream size                 : 347 MiB (10%)
  61. Language                    : English
  62. Service kind                : Complete Main
  63. Default                     : No
  64. Forced                      : No
  65.  
  66. Text
  67. ID                          : 3
  68. Format                      : UTF-8
  69. Codec ID                    : S_TEXT/UTF8
  70. Codec ID/Info               : UTF-8 Plain Text
  71. Duration                    : 2 h 4 min
  72. Bit rate                    : 58 b/s
  73. Count of elements           : 1336
  74. Stream size                 : 53.5 KiB (0%)
  75. Language                    : English
  76. Default                     : Yes
  77. Forced                      : No
  78.  
  79. Menu
  80. 00:00:00.000                : en:Survived
  81. 00:09:06.170                : en:The Plans
  82. 00:18:00.579                : en:What Progress
  83. 00:26:49.941                : en:Home
  84. 00:35:01.849                : en:Pundits
  85. 00:43:15.259                : en:Industry
  86. 00:52:38.488                : en:Morning After
  87. 00:59:24.644                : en:New Grids
  88. 01:07:32.423                : en:Allies
  89. 01:11:44.300                : en:Pepper:Accomplice
  90. 01:18:31.206                : en:Old Inventions
  91. 01:24:40.575                : en:Underpowered
  92. 01:35:00.111                : en:Official Statement
  93. 01:44:29.346                : en:End Credits
  94. 01:53:31.471                : en:End
View raw paste Child paste by: Not specified Reply