Author: nvtuan86 Language: text
Description: Not specified Timestamp: 2017-05-02 01:38:19 +0000
View raw paste Reply
  1. General
  2. Unique ID                                : 184397532679728851138284347062909864470 (0x8AB9AC48CDD50CC18FCF2BDD27730A16)
  3. Complete name                            : D:\VietHD\Fallen 2016 720p BluRay DD5.1 x264-VietHD\Fallen 2016 720p BluRay DD5.1 x264-VietHD.mkv
  4. Format                                   : Matroska
  5. Format version                           : Version 4 / Version 2
  6. File size                                : 4.44 GiB
  7. Duration                                 : 1h 31mn
  8. Overall bit rate                         : 6 949 Kbps
  9. Encoded date                             : UTC 2017-05-02 01:05:21
  10. Writing application                      : mkvmerge v10.0.0 ('To Drown In You') 64bit
  11. Writing library                          : libebml v1.3.4 + libmatroska v1.4.5
  12.  
  13. Video
  14. ID                                       : 5
  15. Format                                   : AVC
  16. Format/Info                              : Advanced Video Codec
  17. Format profile                           : High@L4.1
  18. Format settings, CABAC                   : Yes
  19. Format settings, ReFrames                : 12 frames
  20. Codec ID                                 : V_MPEG4/ISO/AVC
  21. Duration                                 : 1h 31mn
  22. Bit rate                                 : 6 283 Kbps
  23. Width                                    : 1 280 pixels
  24. Height                                   : 542 pixels
  25. Display aspect ratio                     : 2.35:1
  26. Original display aspect ratio            : 2.35:1
  27. Frame rate mode                          : Constant
  28. Frame rate                               : 23.976 (24000/1001) fps
  29. Color space                              : YUV
  30. Chroma subsampling                       : 4:2:0
  31. Bit depth                                : 8 bits
  32. Scan type                                : Progressive
  33. Bits/(Pixel*Frame)                       : 0.378
  34. Stream size                              : 4.02 GiB (90%)
  35. Writing library                          : x264 core 148 r2762.20 f1807b7 VietHD_Custom
  36. Encoding settings                        : cabac=1 / ref=12 / deblock=1:-3:-3 / analyse=0x3:0x133 / me=umh / subme=10 / psy=1 / fade_compensate=0.00 / psy_rd=1.09:0.00 / mixed_ref=1 / me_range=24 / chroma_me=1 / trellis=2 / 8x8dct=1 / cqm=0 / deadzone=21,11 / fast_pskip=0 / chroma_qp_offset=-2 / threads=12 / lookahead_threads=2 / sliced_threads=0 / nr=0 / decimate=0 / interlaced=0 / bluray_compat=0 / constrained_intra=0 / fgo=0 / bframes=8 / b_pyramid=2 / b_adapt=2 / b_bias=0 / direct=3 / weightb=1 / open_gop=0 / weightp=2 / keyint=250 / keyint_min=23 / scenecut=40 / intra_refresh=0 / rc_lookahead=60 / rc=crf / mbtree=0 / crf=15.9000 / qcomp=0.65 / qpmin=0:0:0 / qpmax=69:69:69 / qpstep=4 / vbv_maxrate=62500 / vbv_bufsize=78125 / crf_max=0.0 / nal_hrd=none / filler=0 / ip_ratio=1.30 / pb_ratio=1.20 / aq=3:0.75 / aq-sensitivity=10.00 / aq-factor=1.00:1.00:1.00 / aq2=0 / aq3=0 / zones=0,1000,crf=12/11977,12026,crf=12/33383,33474,crf=11/105863,106199,crf=12/107679,108030,crf=12
  37. Language                                 : English
  38. Default                                  : Yes
  39. Forced                                   : No
  40. Color range                              : Limited
  41. Matrix coefficients                      : BT.709
  42.  
  43. Audio
  44. ID                                       : 1
  45. Format                                   : AC-3
  46. Format/Info                              : Audio Coding 3
  47. Mode extension                           : CM (complete main)
  48. Format settings, Endianness              : Big
  49. Codec ID                                 : A_AC3
  50. Duration                                 : 1h 31mn
  51. Bit rate mode                            : Constant
  52. Bit rate                                 : 640 Kbps
  53. Channel(s)                               : 6 channels
  54. Channel positions                        : Front: L C R, Side: L R, LFE
  55. Sampling rate                            : 48.0 KHz
  56. Frame rate                               : 31.250 fps (1536 spf)
  57. Compression mode                         : Lossy
  58. Stream size                              : 419 MiB (9%)
  59. Language                                 : English
  60. Default                                  : Yes
  61. Forced                                   : No
  62.  
  63. Text #1
  64. ID                                       : 2
  65. Format                                   : UTF-8
  66. Codec ID                                 : S_TEXT/UTF8
  67. Codec ID/Info                            : UTF-8 Plain Text
  68. Duration                                 : 1h 23mn
  69. Bit rate                                 : 52 bps
  70. Count of elements                        : 1142
  71. Stream size                              : 32.5 KiB (0%)
  72. Language                                 : English
  73. Default                                  : No
  74. Forced                                   : No
  75.  
  76. Text #2
  77. ID                                       : 3
  78. Format                                   : PGS
  79. Muxing mode                              : zlib
  80. Codec ID                                 : S_HDMV/PGS
  81. Codec ID/Info                            : Picture based subtitle format used on BDs/HD-DVDs

This paste is large and only partially shown.
View full paste

View raw paste Reply