Author: Not specified Language: text
Description: Not specified Timestamp: 2013-06-17 15:01:26 +0000
View raw paste Reply
  1. General
  2. Complete name                            : E:\Phim\Dau.Bep.Cung.Dinh\Dau.Bep.Cung.Dinh.01.avi
  3. Format                                   : AVI
  4. Format/Info                              : Audio Video Interleave
  5. File size                                : 200 MiB
  6. Duration                                 : 23mn 35s
  7. Overall bit rate                         : 1 183 Kbps
  8. Writing application                      : VirtualDubMod 1.5.10.2 (build 2540/release)
  9. Writing library                          : VirtualDubMod build 2540/release
  10.  
  11. Video
  12. ID                                       : 0
  13. Format                                   : MPEG-4 Visual
  14. Format profile                           : Advanced Simple@L5
  15. Format settings, BVOP                    : 2
  16. Format settings, QPel                    : No
  17. Format settings, GMC                     : No warppoints
  18. Format settings, Matrix                  : Default (H.263)
  19. Muxing mode                              : Packed bitstream
  20. Codec ID                                 : XVID
  21. Codec ID/Hint                            : XviD
  22. Duration                                 : 23mn 34s
  23. Bit rate                                 : 1 115 Kbps
  24. Width                                    : 640 pixels
  25. Height                                   : 480 pixels
  26. Display aspect ratio                     : 4:3
  27. Frame rate                               : 29.970 fps
  28. Color space                              : YUV
  29. Chroma subsampling                       : 4:2:0
  30. Bit depth                                : 8 bits
  31. Scan type                                : Progressive
  32. Compression mode                         : Lossy
  33. Bits/(Pixel*Frame)                       : 0.121
  34. Stream size                              : 188 MiB (94%)
  35. Writing library                          : XviD 1.2.1 (UTC 2008-12-04)
  36.  
  37. Audio
  38. ID                                       : 1
  39. Format                                   : MPEG Audio
  40. Format version                           : Version 2
  41. Format profile                           : Layer 3
  42. Mode                                     : Joint stereo
  43. Mode extension                           : Intensity Stereo + MS Stereo
  44. Codec ID                                 : 55
  45. Codec ID/Hint                            : MP3
  46. Duration                                 : 23mn 35s
  47. Bit rate mode                            : Constant
  48. Bit rate                                 : 56.0 Kbps
  49. Channel(s)                               : 2 channels
  50. Sampling rate                            : 22.05 KHz
  51. Compression mode                         : Lossy
  52. Stream size                              : 9.40 MiB (5%)
  53. Alignment                                : Split accross interleaves
  54. Interleave, duration                     : 33 ms (1.00 video frame)
  55. Interleave, preload duration             : 502 ms
View raw paste Reply