Author: Not specified Language: text
Description: Not specified Timestamp: 2018-03-26 01:39:45 +0000
View raw paste Reply
  1. General
  2. Unique ID                   : 181725434484602720106534576392061517697 (0x88B70BABFCBEC6EF8A7990009D8AFF81)
  3. Complete name               : D:\N\Downsizing.2017.REMASTERED.1080p.BluRay.x264.DD5.1-Pahe.in.mkv
  4. Format                      : Matroska
  5. Format version              : Version 4 / Version 2
  6. File size                   : 2.13 GiB
  7. Duration                    : 2 h 15 min
  8. Overall bit rate            : 2 257 kb/s
  9. Movie name                  : Downsizing (2017)
  10. Encoded date                : UTC 2018-03-25 14:15:23
  11. Writing application         : mkvmerge v13.0.0 ('The Juggler') 64bit
  12. Writing library             : libebml v1.3.4 + libmatroska v1.4.5
  13. Cover                       : Yes
  14. Attachments                 : cover.jpg
  15. Encoded by                  : Pahe.in™ Team
  16.  
  17. Video
  18. ID                          : 1
  19. Format                      : AVC
  20. Format/Info                 : Advanced Video Codec
  21. Format profile              : High@L4.1
  22. Format settings             : CABAC / 5 Ref Frames
  23. Format settings, CABAC      : Yes
  24. Format settings, ReFrames   : 5 frames
  25. Codec ID                    : V_MPEG4/ISO/AVC
  26. Duration                    : 2 h 15 min
  27. Bit rate                    : 1 861 kb/s
  28. Width                       : 1 920 pixels
  29. Height                      : 804 pixels
  30. Display aspect ratio        : 2.40:1
  31. Frame rate mode             : Constant
  32. Frame rate                  : 23.976 (24000/1001) FPS
  33. Color space                 : YUV
  34. Chroma subsampling          : 4:2:0
  35. Bit depth                   : 8 bits
  36. Scan type                   : Progressive
  37. Bits/(Pixel*Frame)          : 0.050
  38. Stream size                 : 1.76 GiB (82%)
  39. Writing library             : x264 core 152 r2851 ba24899
  40. Encoding settings           : cabac=1 / ref=5 / deblock=1:-3:-3 / analyse=0x3:0x133 / me=umh / subme=10 / psy=1 / psy_rd=1.00:0.15 / mixed_ref=1 / me_range=32 / chroma_me=1 / trellis=2 / 8x8dct=1 / cqm=0 / deadzone=21,11 / fast_pskip=0 / chroma_qp_offset=-3 / threads=18 / lookahead_threads=3 / sliced_threads=0 / nr=0 / decimate=0 / interlaced=0 / bluray_compat=0 / constrained_intra=0 / bframes=8 / b_pyramid=2 / b_adapt=2 / b_bias=0 / direct=3 / weightb=1 / open_gop=0 / weightp=2 / keyint=250 / keyint_min=23 / scenecut=40 / intra_refresh=0 / rc_lookahead=60 / rc=crf / mbtree=0 / crf=24.3 / qcomp=0.60 / qpmin=0 / qpmax=69 / qpstep=4 / vbv_maxrate=45800 / vbv_bufsize=36000 / crf_max=0.0 / nal_hrd=none / filler=0 / ip_ratio=1.30 / pb_ratio=1.20 / aq=1:0.80
  41. Default                     : Yes
  42. Forced                      : No
  43.  
  44. Audio
  45. ID                          : 2
  46. Format                      : AC-3
  47. Format/Info                 : Audio Coding 3
  48. Codec ID                    : A_AC3
  49. Duration                    : 2 h 15 min
  50. Bit rate mode               : Constant
  51. Bit rate                    : 384 kb/s
  52. Channel(s)                  : 6 channels
  53. Channel positions           : Front: L C R, Side: L R, LFE
  54. Sampling rate               : 48.0 kHz
  55. Frame rate                  : 31.250 FPS (1536 SPF)
  56. Bit depth                   : 16 bits
  57. Compression mode            : Lossy
  58. Stream size                 : 372 MiB (17%)
  59. Language                    : English
  60. Service kind                : Complete Main
  61. Default                     : No
  62. Forced                      : No
  63.  
  64. Text #1
  65. ID                          : 3
  66. Format                      : UTF-8
  67. Codec ID                    : S_TEXT/UTF8
  68. Codec ID/Info               : UTF-8 Plain Text
  69. Duration                    : 2 h 4 min
  70. Bit rate                    : 58 b/s
  71. Count of elements           : 1634
  72. Stream size                 : 53.5 KiB (0%)
  73. Language                    : English
  74. Default                     : No
  75. Forced                      : No
  76.  
  77. Text #2
  78. ID                          : 4
  79. Format                      : PGS
  80. Muxing mode                 : zlib
  81. Codec ID                    : S_HDMV/PGS
  82. Codec ID/Info               : Picture based subtitle format used on BDs/HD-DVDs
  83. Duration                    : 2 h 4 min
  84. Bit rate                    : 35.6 kb/s
  85. Count of elements           : 3270
  86. Stream size                 : 31.8 MiB (1%)
  87. Language                    : English
  88. Default                     : Yes
  89. Forced                      : No
  90.  
  91. Menu
  92. 00:00:00.000                : en:Chapter 1
  93. 00:06:13.539                : en:Chapter 2
  94. 00:10:38.346                : en:Chapter 3
  95. 00:16:24.483                : en:Chapter 4
  96. 00:22:14.666                : en:Chapter 5
  97. 00:30:23.905                : en:Chapter 6
  98. 00:38:44.363                : en:Chapter 7
  99. 00:42:38.597                : en:Chapter 8
  100. 00:47:36.687                : en:Chapter 9
  101. 00:55:08.722                : en:Chapter 10
  102. 01:04:35.830                : en:Chapter 11
  103. 01:13:11.595                : en:Chapter 12
  104. 01:21:13.201                : en:Chapter 13
  105. 01:28:00.775                : en:Chapter 14
  106. 01:33:25.308                : en:Chapter 15
  107. 01:41:42.513                : en:Chapter 16
  108. 01:44:11.870                : en:Chapter 17
  109. 01:51:54.374                : en:Chapter 18
  110. 01:58:36.442                : en:Chapter 19

This paste is large and only partially shown.
View full paste

View raw paste Reply