Author: Not specified Language: text
Description: Not specified Timestamp: 2019-11-22 13:24:48 +0000
View raw paste Child paste by: Not specified Reply
  1. General
  2. Unique ID                   : 66967550502048980876003680976896349068 (0x32617B2826D4B126F9C26A35DF05538C)
  3. Complete name               : E:\Ready.or.Not.2019.1080p.BluRay.x265.10Bit.DD5.1-Pahe.in.mkv
  4. Format                      : Matroska
  5. Format version              : Version 4 / Version 2
  6. File size                   : 1.10 GiB
  7. Duration                    : 1 h 35 min
  8. Overall bit rate            : 1 654 kb/s
  9. Encoded date                : UTC 2019-11-22 13:00:42
  10. Writing application         : mkvmerge v24.0.0 ('Beyond The Pale') 64-bit
  11. Writing library             : libebml v1.3.6 + libmatroska v1.4.9
  12. Cover                       : Yes
  13. Attachments                 : cover.jpg
  14. Encoded by                  : Pahe.in™ Team
  15.  
  16. Video
  17. ID                          : 1
  18. Format                      : HEVC
  19. Format/Info                 : High Efficiency Video Coding
  20. Format profile              : Main 10@L4@High
  21. Codec ID                    : V_MPEGH/ISO/HEVC
  22. Duration                    : 1 h 35 min
  23. Bit rate                    : 1 253 kb/s
  24. Width                       : 1 920 pixels
  25. Height                      : 804 pixels
  26. Display aspect ratio        : 2.40:1
  27. Frame rate mode             : Constant
  28. Frame rate                  : 23.976 (24000/1001) FPS
  29. Color space                 : YUV
  30. Chroma subsampling          : 4:2:0
  31. Bit depth                   : 10 bits
  32. Bits/(Pixel*Frame)          : 0.034
  33. Stream size                 : 855 MiB (76%)
  34. Writing library             : x265 3.2+5-gfbe9fef31:[Windows][GCC 9.2.0][64 bit] 10bit
  35. Default                     : Yes
  36. Forced                      : No
  37. Color range                 : Limited
  38. Color primaries             : BT.709
  39. Matrix coefficients         : BT.709
  40.  
  41. Audio
  42. ID                          : 2
  43. Format                      : AC-3
  44. Format/Info                 : Audio Coding 3
  45. Commercial name             : Dolby Digital
  46. Codec ID                    : A_AC3
  47. Duration                    : 1 h 35 min
  48. Bit rate mode               : Constant
  49. Bit rate                    : 384 kb/s
  50. Channel(s)                  : 6 channels
  51. Channel layout              : L R C LFE Ls Rs
  52. Sampling rate               : 48.0 kHz
  53. Frame rate                  : 31.250 FPS (1536 SPF)
  54. Bit depth                   : 16 bits
  55. Compression mode            : Lossy
  56. Stream size                 : 262 MiB (23%)
  57. Language                    : English
  58. Service kind                : Complete Main
  59. Default                     : No
  60. Forced                      : No
  61.  
  62. Text #1
  63. ID                          : 3
  64. Format                      : PGS
  65. Muxing mode                 : zlib
  66. Codec ID                    : S_HDMV/PGS
  67. Codec ID/Info               : Picture based subtitle format used on BDs/HD-DVDs
  68. Duration                    : 1 h 35 min
  69. Bit rate                    : 35.2 kb/s
  70. Count of elements           : 2726
  71. Stream size                 : 24.0 MiB (2%)
  72. Language                    : English
  73. Default                     : Yes
  74. Forced                      : No
  75.  
  76. Text #2
  77. ID                          : 4
  78. Format                      : UTF-8
  79. Codec ID                    : S_TEXT/UTF8
  80. Codec ID/Info               : UTF-8 Plain Text
  81. Duration                    : 1 h 33 min
  82. Bit rate                    : 47 b/s
  83. Count of elements           : 1170
  84. Stream size                 : 32.8 KiB (0%)
  85. Language                    : English
  86. Default                     : No
  87. Forced                      : No
  88.  
  89. Menu
  90. 00:00:00.000                : en:绗?01 绔?
  91. 00:03:11.817                : en:绗?02 绔?
  92. 00:06:49.534                : en:绗?03 绔?
  93. 00:09:27.776                : en:绗?04 绔?
  94. 00:12:27.038                : en:绗?05 绔?
  95. 00:16:24.150                : en:绗?06 绔?
  96. 00:21:57.942                : en:绗?07 绔?
  97. 00:25:21.061                : en:绗?08 绔?
  98. 00:28:00.262                : en:绗?09 绔?
  99. 00:31:21.922                : en:绗?10 绔?
  100. 00:34:46.459                : en:绗?11 绔?
  101. 00:36:08.625                : en:绗?12 绔?
  102. 00:38:23.760                : en:绗?13 绔?
  103. 00:41:55.930                : en:绗?14 绔?
  104. 00:45:40.363                : en:绗?15 绔?
  105. 00:48:03.047                : en:绗?16 绔?
  106. 00:51:50.441                : en:绗?17 绔?
  107. 00:54:05.075                : en:绗?18 绔?
  108. 00:57:05.088                : en:绗?19 绔?
  109. 00:59:52.714                : en:绗?20 绔?
  110. 01:01:37.903                : en:绗?21 绔?
  111. 01:04:01.671                : en:绗?22 绔?
  112. 01:07:31.422                : en:绗?23 绔?
  113. 01:09:25.828                : en:绗?24 绔?
  114. 01:11:48.304                : en:绗?25 绔?
  115. 01:15:59.722                : en:绗?26 绔?
  116. 01:18:34.585                : en:绗?27 绔?
  117. 01:21:39.645                : en:绗?28 绔?
  118. 01:24:07.292                : en:绗?29 绔?
  119. 01:27:48.013                : en:绗?30 绔?
  120. 01:29:22.315                : en:绗?31 绔?
  121. 01:30:49.152                : en:绗?32 绔?
  122.  
View raw paste Child paste by: Not specified Reply