Author: Not specified Language: text
Description: (v2) Timestamp: 2017-08-20 09:27:49 +0000
View raw paste Parent paste by: Not specified Reply
  1. General
  2. Source                      : Rogue.One.2016.1080p.BluRay.REMUX.AVC.DTS-HD.MA.7.1-EPSiLON
  3. Format                      : Matroska
  4. Format version              : Version 4 / Version 2
  5. File size                   : 3.26 GiB
  6. Duration                    : 2 h 13 min
  7. Overall bit rate            : 3 488 kb/s
  8. Movie name                  : Pahe.in - Rogue One (2016)
  9. Encoded date                : UTC 2017-03-26 05:26:36
  10. Writing application         : mkvmerge v9.6.0 ('Slave To Your Mind') 64bit
  11. Writing library             : libebml v1.3.4 + libmatroska v1.4.5
  12. Cover                       : Yes
  13. Attachments                 : cover.jpg
  14.  
  15. Video
  16. ID                          : 1
  17. Format                      : AVC
  18. Format/Info                 : Advanced Video Codec
  19. Format profile              : High@L4.1
  20. Format settings, CABAC      : Yes
  21. Format settings, ReFrames   : 5 frames
  22. Codec ID                    : V_MPEG4/ISO/AVC
  23. Duration                    : 2 h 13 min
  24. Bit rate                    : 3 091 kb/s
  25. Width                       : 1 920 pixels
  26. Height                      : 804 pixels
  27. Display aspect ratio        : 2.40:1
  28. Frame rate mode             : Constant
  29. Frame rate                  : 23.976 (24000/1001) FPS
  30. Color space                 : YUV
  31. Chroma subsampling          : 4:2:0
  32. Bit depth                   : 8 bits
  33. Scan type                   : Progressive
  34. Bits/(Pixel*Frame)          : 0.084
  35. Stream size                 : 2.89 GiB (89%)
  36. Title                       : https://pahe.in
  37. Writing library             : x264 core 148 r2721 72d53ab
  38. Encoding settings           : cabac=1 / ref=5 / deblock=1:-3:-3 / analyse=0x3:0x133 / me=umh / subme=11 / psy=1 / psy_rd=1.05:0.15 / mixed_ref=1 / me_range=48 / chroma_me=1 / trellis=2 / 8x8dct=1 / cqm=0 / deadzone=21,11 / fast_pskip=0 / chroma_qp_offset=-3 / threads=25 / lookahead_threads=4 / sliced_threads=0 / nr=0 / decimate=0 / interlaced=0 / bluray_compat=0 / constrained_intra=0 / bframes=8 / b_pyramid=2 / b_adapt=2 / b_bias=0 / direct=3 / weightb=1 / open_gop=0 / weightp=2 / keyint=250 / keyint_min=23 / scenecut=40 / intra_refresh=0 / rc_lookahead=60 / rc=crf / mbtree=0 / crf=24.2 / qcomp=0.70 / qpmin=0 / qpmax=69 / qpstep=4 / vbv_maxrate=55000 / vbv_bufsize=35500 / crf_max=0.0 / nal_hrd=none / filler=0 / ip_ratio=1.30 / pb_ratio=1.20 / aq=3:0.70
  39. Default                     : Yes
  40. Forced                      : No
  41.  
  42. Audio
  43. ID                          : 2
  44. Format                      : AC-3
  45. Format/Info                 : Audio Coding 3
  46. Mode extension              : CM (complete main)
  47. Format settings, Endianness : Big
  48. Codec ID                    : A_AC3
  49. Duration                    : 2 h 13 min
  50. Bit rate mode               : Constant
  51. Bit rate                    : 384 kb/s
  52. Channel(s)                  : 6 channels
  53. Channel positions           : Front: L C R, Side: L R, LFE
  54. Sampling rate               : 48.0 kHz
  55. Frame rate                  : 31.250 FPS (1536 spf)
  56. Bit depth                   : 16 bits
  57. Compression mode            : Lossy
  58. Stream size                 : 368 MiB (11%)
  59. Language                    : English
  60. Default                     : No
  61. Forced                      : No
  62.  
  63. Text
  64. ID                          : 3
  65. Format                      : PGS
  66. Muxing mode                 : zlib
  67. Codec ID                    : S_HDMV/PGS
  68. Codec ID/Info               : Picture based subtitle format used on BDs/HD-DVDs
  69. Duration                    : 2 h 5 min
  70. Bit rate                    : 11.6 kb/s
  71. Count of elements           : 3666
  72. Stream size                 : 10.4 MiB (0%)
  73. Language                    : English
  74. Default                     : Yes
  75. Forced                      : No
  76.  
  77. Menu
  78. 00:00:00.000                : en:"He's Come For Us"
  79. 00:02:34.654                : en:Unfinished Business
  80. 00:07:46.466                : en:Jyn in Prison
  81. 00:08:42.814                : en:Ring of Kafrene
  82. 00:11:04.622                : en:An Urgent Message
  83. 00:12:21.199                : en:Wobani Prison Break
  84. 00:13:41.154                : en:Rebel Interrogation
  85. 00:17:19.914                : en:Mission Departure
  86. 00:20:09.542                : en:Saw Gerrera
  87. 00:21:54.772                : en:Krennic and Tarkin
  88. 00:23:47.092                : en:Jyn's Dream
  89. 00:24:31.386                : en:Scouting Jedha City
  90. 00:26:53.445                : en:Bor Gullet
  91. 00:27:46.623                : en:Guardians of The Whills
  92. 00:30:37.294                : en:Holy City Ambush
  93. 00:33:53.406                : en:"Let Them Pass"
  94. 00:37:11.271                : en:Saw's Catacombs
  95. 00:42:30.089                : en:Galen's Message
  96. 00:47:16.125                : en:Jedha Escape
  97. 00:51:04.144                : en:Tarkin Commands
  98. 00:52:23.724                : en:Race to Eadu
  99. 00:55:53.266                : en:Eadu Crash
  100. 00:59:48.251                : en:Scouting Eadu
  101. 01:02:07.807                : en:Krennic and Galen
  102. 01:05:25.505                : en:Attack on Eadu
  103. 01:10:24.095                : en:Eadu Aftermath
  104. 01:12:49.532                : en:Mustafar
  105. 01:16:28.459                : en:Jyn Before The Council

This paste is large and only partially shown.
View full paste

View raw paste Parent paste by: Not specified Reply