Author: Snow.White.And.The.Seven.Dwarfs.720p Language: text
Description: Not specified Timestamp: 2013-05-16 05:26:06 +0000
View raw paste Reply
  1. General
  2.  
  3. Complete name                            : Snow.White.And.The.Seven.Dwarfs.(1937).BluRay.720p.x264.Dual-Audio-by.Rosum.mkv
  4. Format                                   : Matroska
  5. Format version                           : Version 4 / Version 2
  6. File size                                : 3.81 GiB
  7. Duration                                 : 1h 23mn
  8. Overall bit rate                         : 6 549 Kbps
  9. Movie name                               : Snow White and the Seven Dwarfs { 1937 } - Release for "rosum-clips.blogspot.com"
  10. Encoded date                             : UTC 2013-04-15 05:49:09
  11. Writing application                      : mkvmerge v6.1.0 ('Old Devil') built on Mar  2 2013 14:32:37
  12. Writing library                          : libebml v1.3.0 + libmatroska v1.4.0
  13.  
  14. Video
  15. ID                                       : 1
  16. Format                                   : AVC
  17. Format/Info                              : Advanced Video Codec
  18. Format profile                           : High@L3.1
  19. Format settings, CABAC                   : Yes
  20. Format settings, ReFrames                : 4 frames
  21. Codec ID                                 : V_MPEG4/ISO/AVC
  22. Bit rate                                 : 5 238 Kbps
  23. Width                                    : 1 280 pixels
  24. Height                                   : 720 pixels
  25. Display aspect ratio                     : 16:9
  26. Frame rate mode                          : Variable
  27. Color space                              : YUV
  28. Chroma subsampling                       : 4:2:0
  29. Bit depth                                : 8 bits
  30. Scan type                                : Progressive
  31. Title                                    : Exclusive Release "Rosum" www.7asryat.com
  32. Writing library                          : x264 core 112
  33. Encoding settings                        : cabac=1 / ref=3 / deblock=1:0:0 / analyse=0x3:0x113 / me=hex / subme=7 / psy=1 / psy_rd=1.00:0.00 / mixed_ref=1 / me_range=16 / chroma_me=1 / trellis=1 / 8x8dct=1 / cqm=0 / deadzone=21,11 / fast_pskip=1 / chroma_qp_offset=-2 / threads=6 / sliced_threads=0 / nr=0 / decimate=1 / interlaced=0 / constrained_intra=0 / bframes=3 / b_pyramid=2 / b_adapt=2 / b_bias=0 / direct=1 / weightb=1 / open_gop=0 / weightp=2 / keyint=240 / keyint_min=23 / scenecut=40 / intra_****************************=0 / rc_lookahead=50 / rc=abr / mbtree=1 / bitrate=5238 / ratetol=1.0 / qcomp=0.60 / qpmin=3 / qpmax=51 / qpstep=4 / ip_ratio=1.40 / aq=1:1.00
  34. ********************************                                 : English
  35. Default                                  : No
  36. Forced                                   : No
  37. Color primaries                          : BT.709
  38. Transfer characteristics                 : BT.709
  39. Matrix coefficients                      : BT.709
  40.  
  41. Audio #1
  42. ID                                       : 2
  43. Format                                   : AC-3
  44. Format/Info                              : Audio Coding 3
  45. Mode extension                           : CM (complete main)
  46. Format settings, Endianness              : Big
  47. Codec ID                                 : A_AC3
  48. Duration                                 : 1h 23mn
  49. Bit rate mode                            : Constant
  50. Bit rate                                 : 640 Kbps
  51. Channel(s)                               : 6 channels
  52. Channel positions                        : Front: L C R, Side: L R, LFE
  53. Sampling rate                            : 48.0 KHz
  54. Bit depth                                : 16 bits
  55. Compression mode                         : Lossy
  56. Stream size                              : 381 MiB (10%)
  57. Title                                    : Arabic, Original BluRay, AC3, 5.1 ch , 640 kbps, 48.0 KHz
  58. ********************************                                 : Arabic
  59. Default                                  : Yes
  60. Forced                                   : No
  61.  
  62. Audio #2
  63. ID                                       : 3
  64. Format                                   : AC-3
  65. Format/Info                              : Audio Coding 3
  66. Mode extension                           : CM (complete main)
  67. Format settings, Endianness              : Big
  68. Codec ID                                 : A_AC3
  69. Duration                                 : 1h 23mn
  70. Bit rate mode                            : Constant
  71. Bit rate                                 : 640 Kbps
  72. Channel(s)                               : 6 channels
  73. Channel positions                        : Front: L C R, Side: L R, LFE
  74. Sampling rate                            : 48.0 KHz
  75. Bit depth                                : 16 bits
  76. Compression mode                         : Lossy
  77. Stream size                              : 381 MiB (10%)
  78. Title                                    : English, Original BluRay, AC3, 5.1 ch , 640 kbps, 48.0 KHz
  79. ********************************                                 : English
  80. Default                                  : No
  81. Forced                                   : No
  82.  
  83. Text #1
  84. ID                                       : 4
  85. Format                                   : PGS

This paste is large and only partially shown.
View full paste

View raw paste Reply