Author: Not specified Language: text
Description: Not specified Timestamp: 2019-08-21 10:30:52 +0000
View raw paste Reply
  1. General
  2. Unique ID                   : 312609008937788778229124840086953992130 (0xEB2E4E1C55A3065D2928176DD7531FC2)
  3. Complete name               : F:\Godzilla.King.of.the.Monsters.2019.REPACK.1080p.BluRay.x264.DD5.1-Pahe.in.mkv
  4. Format                      : Matroska
  5. Format version              : Version 4
  6. File size                   : 2.87 GiB
  7. Duration                    : 2 h 11 min
  8. Overall bit rate            : 3 124 kb/s
  9. Encoded date                : UTC 2019-08-21 02:48:05
  10. Writing application         : mkvmerge v24.0.0 ('Beyond The Pale') 64-bit
  11. Writing library             : libebml v1.3.6 + libmatroska v1.4.9
  12. Cover                       : Yes
  13. Attachments                 : cover.jpg
  14. Encoded by                  : Pahe.in™ Team
  15.  
  16. Video
  17. ID                          : 1
  18. Format                      : AVC
  19. Format/Info                 : Advanced Video Codec
  20. Format profile              : High@L4.1
  21. Format settings             : CABAC / 5 Ref Frames
  22. Format settings, CABAC      : Yes
  23. Format settings, ReFrames   : 5 frames
  24. Codec ID                    : V_MPEG4/ISO/AVC
  25. Duration                    : 2 h 11 min
  26. Bit rate                    : 2 728 kb/s
  27. Width                       : 1 920 pixels
  28. Height                      : 800 pixels
  29. Display aspect ratio        : 2.40:1
  30. Frame rate mode             : Constant
  31. Frame rate                  : 23.976 (24000/1001) FPS
  32. Color space                 : YUV
  33. Chroma subsampling          : 4:2:0
  34. Bit depth                   : 8 bits
  35. Scan type                   : Progressive
  36. Bits/(Pixel*Frame)          : 0.074
  37. Stream size                 : 2.51 GiB (87%)
  38. Writing library             : x264 core 155 r2901 7d0ff22
  39. Encoding settings           : cabac=1 / ref=5 / deblock=1:-3:-3 / analyse=0x3:0x133 / me=umh / subme=10 / psy=1 / psy_rd=1.00:0.15 / mixed_ref=1 / me_range=48 / chroma_me=1 / trellis=2 / 8x8dct=1 / cqm=0 / deadzone=21,11 / fast_pskip=0 / chroma_qp_offset=-3 / threads=24 / lookahead_threads=4 / sliced_threads=0 / nr=0 / decimate=0 / interlaced=0 / bluray_compat=0 / constrained_intra=0 / bframes=8 / b_pyramid=2 / b_adapt=2 / b_bias=0 / direct=3 / weightb=1 / open_gop=0 / weightp=2 / keyint=250 / keyint_min=23 / scenecut=40 / intra_refresh=0 / rc_lookahead=60 / rc=crf / mbtree=0 / crf=25.2 / qcomp=0.60 / qpmin=0 / qpmax=69 / qpstep=4 / vbv_maxrate=33500 / vbv_bufsize=30000 / crf_max=0.0 / nal_hrd=none / filler=0 / ip_ratio=1.30 / pb_ratio=1.20 / aq=3:0.80
  40. Default                     : Yes
  41. Forced                      : No
  42.  
  43. Audio
  44. ID                          : 2
  45. Format                      : AC-3
  46. Format/Info                 : Audio Coding 3
  47. Commercial name             : Dolby Digital
  48. Codec ID                    : A_AC3
  49. Duration                    : 2 h 11 min
  50. Bit rate mode               : Constant
  51. Bit rate                    : 384 kb/s
  52. Channel(s)                  : 6 channels
  53. Channel layout              : L R C LFE Ls Rs
  54. Sampling rate               : 48.0 kHz
  55. Frame rate                  : 31.250 FPS (1536 SPF)
  56. Bit depth                   : 16 bits
  57. Compression mode            : Lossy
  58. Stream size                 : 362 MiB (12%)
  59. Language                    : English
  60. Service kind                : Complete Main
  61. Default                     : No
  62. Forced                      : No
  63.  
  64. Text #1
  65. ID                          : 3
  66. Format                      : UTF-8
  67. Codec ID                    : S_TEXT/UTF8
  68. Codec ID/Info               : UTF-8 Plain Text
  69. Duration                    : 2 h 10 min
  70. Bit rate                    : 44 b/s
  71. Count of elements           : 1310
  72. Stream size                 : 42.6 KiB (0%)
  73. Language                    : English
  74. Default                     : No
  75. Forced                      : No
  76.  
  77. Text #2
  78. ID                          : 4
  79. Format                      : PGS
  80. Muxing mode                 : zlib
  81. Codec ID                    : S_HDMV/PGS
  82. Codec ID/Info               : Picture based subtitle format used on BDs/HD-DVDs
  83. Duration                    : 2 h 11 min
  84. Bit rate                    : 33.0 kb/s
  85. Count of elements           : 3322
  86. Stream size                 : 31.0 MiB (1%)
  87. Language                    : English
  88. Default                     : Yes
  89. Forced                      : No
  90.  
  91. Menu
  92. 00:00:00.000                : en:Chapter 01
  93. 00:10:53.903                : en:Chapter 02
  94. 00:18:06.502                : en:Chapter 03
  95. 00:30:26.991                : en:Chapter 04
  96. 00:45:18.590                : en:Chapter 05
  97. 00:54:11.039                : en:Chapter 06
  98. 01:05:41.646                : en:Chapter 07
  99. 01:09:31.584                : en:Chapter 08
  100. 01:19:31.099                : en:Chapter 09
  101. 01:30:05.983                : en:Chapter 10
  102. 01:38:36.785                : en:Chapter 11
  103. 01:49:58.883                : en:Chapter 12
  104. 01:59:28.828                : en:Chapter 13
  105.  
  106.  
View raw paste Reply