Author: Not specified Language: text
Description: Not specified Timestamp: 2019-08-19 03:12:09 +0000
View raw paste Reply
  1. General
  2. Unique ID                   : 132924492609386457052168187493701063451 (0x640053790DDCB087AB6FC2167FA7131B)
  3. Complete name               : F:\The.Hustle.2019.1080p.BluRay.x264.DD5.1-Pahe.in.mkv
  4. Format                      : Matroska
  5. Format version              : Version 4
  6. File size                   : 1.74 GiB
  7. Duration                    : 1 h 33 min
  8. Overall bit rate            : 2 655 kb/s
  9. Encoded date                : UTC 2019-08-19 00:38:11
  10. Writing application         : mkvmerge v24.0.0 ('Beyond The Pale') 64-bit
  11. Writing library             : libebml v1.3.6 + libmatroska v1.4.9
  12. Cover                       : Yes
  13. Attachments                 : cover.jpg
  14. Encoded by                  : Pahe.in™ Team
  15.  
  16. Video
  17. ID                          : 1
  18. Format                      : AVC
  19. Format/Info                 : Advanced Video Codec
  20. Format profile              : High@L4.1
  21. Format settings             : CABAC / 5 Ref Frames
  22. Format settings, CABAC      : Yes
  23. Format settings, ReFrames   : 5 frames
  24. Codec ID                    : V_MPEG4/ISO/AVC
  25. Duration                    : 1 h 33 min
  26. Bit rate                    : 2 254 kb/s
  27. Width                       : 1 920 pixels
  28. Height                      : 804 pixels
  29. Display aspect ratio        : 2.40:1
  30. Frame rate mode             : Constant
  31. Frame rate                  : 23.976 (24000/1001) FPS
  32. Color space                 : YUV
  33. Chroma subsampling          : 4:2:0
  34. Bit depth                   : 8 bits
  35. Scan type                   : Progressive
  36. Bits/(Pixel*Frame)          : 0.061
  37. Stream size                 : 1.48 GiB (85%)
  38. Writing library             : x264 core 155 r2901 7d0ff22
  39. Encoding settings           : cabac=1 / ref=5 / deblock=1:-3:-3 / analyse=0x3:0x133 / me=umh / subme=10 / psy=1 / psy_rd=1.00:0.15 / mixed_ref=1 / me_range=48 / chroma_me=1 / trellis=2 / 8x8dct=1 / cqm=0 / deadzone=21,11 / fast_pskip=0 / chroma_qp_offset=-3 / threads=24 / lookahead_threads=4 / sliced_threads=0 / nr=0 / decimate=0 / interlaced=0 / bluray_compat=0 / constrained_intra=0 / bframes=8 / b_pyramid=2 / b_adapt=2 / b_bias=0 / direct=3 / weightb=1 / open_gop=0 / weightp=2 / keyint=250 / keyint_min=23 / scenecut=40 / intra_refresh=0 / rc_lookahead=60 / rc=crf / mbtree=0 / crf=24.2 / qcomp=0.60 / qpmin=0 / qpmax=69 / qpstep=4 / vbv_maxrate=33500 / vbv_bufsize=30000 / crf_max=0.0 / nal_hrd=none / filler=0 / ip_ratio=1.30 / pb_ratio=1.20 / aq=3:0.80
  40. Default                     : Yes
  41. Forced                      : No
  42.  
  43. Audio
  44. ID                          : 2
  45. Format                      : AC-3
  46. Format/Info                 : Audio Coding 3
  47. Commercial name             : Dolby Digital
  48. Codec ID                    : A_AC3
  49. Duration                    : 1 h 33 min
  50. Bit rate mode               : Constant
  51. Bit rate                    : 384 kb/s
  52. Channel(s)                  : 6 channels
  53. Channel layout              : L R C LFE Ls Rs
  54. Sampling rate               : 48.0 kHz
  55. Frame rate                  : 31.250 FPS (1536 SPF)
  56. Bit depth                   : 16 bits
  57. Compression mode            : Lossy
  58. Stream size                 : 258 MiB (14%)
  59. Language                    : English
  60. Service kind                : Complete Main
  61. Default                     : No
  62. Forced                      : No
  63.  
  64. Text
  65. ID                          : 3
  66. Format                      : PGS
  67. Muxing mode                 : zlib
  68. Codec ID                    : S_HDMV/PGS
  69. Codec ID/Info               : Picture based subtitle format used on BDs/HD-DVDs
  70. Duration                    : 1 h 33 min
  71. Bit rate                    : 51.3 kb/s
  72. Count of elements           : 3512
  73. Stream size                 : 34.2 MiB (2%)
  74. Language                    : English
  75. Default                     : Yes
  76. Forced                      : No
  77.  
  78. Menu
  79. 00:00:00.000                : en:Chapter 01
  80. 00:05:58.858                : en:Chapter 02
  81. 00:09:56.137                : en:Chapter 03
  82. 00:15:29.554                : en:Chapter 04
  83. 00:21:12.646                : en:Chapter 05
  84. 00:25:19.852                : en:Chapter 06
  85. 00:32:26.903                : en:Chapter 07
  86. 00:37:56.608                : en:Chapter 08
  87. 00:41:51.300                : en:Chapter 09
  88. 00:44:55.818                : en:Chapter 10
  89. 00:49:56.327                : en:Chapter 11
  90. 00:54:34.897                : en:Chapter 12
  91. 00:59:16.261                : en:Chapter 13
  92. 01:02:15.899                : en:Chapter 14
  93. 01:06:47.587                : en:Chapter 15
  94. 01:09:58.152                : en:Chapter 16
  95. 01:15:16.178                : en:Chapter 17
  96. 01:21:37.059                : en:Chapter 18
  97. 01:28:58.833                : en:Chapter 19
  98. 01:32:27.041                : en:Chapter 20
  99.  
  100.  
View raw paste Reply