Author: Not specified Language: text
Description: Not specified Timestamp: 2013-06-06 04:15:24 +0000
View raw paste Reply
  1. General
  2. Unique ID                                : 208077725548700029968123150556367907894 (0x9C8A4FEEEC3E77A3FFCB4F1094736C36)
  3. Complete name                            : E:\Phim\[jackoneill] Piano no mori [bluray] [5661C085].mkv
  4. Format                                   : Matroska
  5. Format version                           : Version 2
  6. File size                                : 2.95 GiB
  7. Duration                                 : 1h 40mn
  8. Overall bit rate mode                    : Variable
  9. Overall bit rate                         : 4 190 Kbps
  10. Movie name                               : Piano no mori
  11. Encoded date                             : UTC 2013-03-12 14:42:30
  12. Writing application                      : mkvmerge v5.8.0 ('No Sleep / Pillow') built on Sep  3 2012 05:05:18
  13. Writing library                          : libebml v1.2.2 + libmatroska v1.3.0
  14. Attachment                               : Yes / Yes / Yes / Yes / Yes / Yes / Yes / Yes / Yes / Yes / Yes / Yes / Yes / Yes
  15.  
  16. Video
  17. ID                                       : 1
  18. Format                                   : AVC
  19. Format/Info                              : Advanced Video Codec
  20. Format profile                           : High 10@L5.0
  21. Format settings, CABAC                   : Yes
  22. Format settings, ReFrames                : 16 frames
  23. Muxing mode                              : Header stripping
  24. Codec ID                                 : V_MPEG4/ISO/AVC
  25. Duration                                 : 1h 40mn
  26. Bit rate                                 : 1 227 Kbps
  27. Width                                    : 1 280 pixels
  28. Height                                   : 720 pixels
  29. Display aspect ratio                     : 16:9
  30. Frame rate mode                          : Constant
  31. Frame rate                               : 23.976 fps
  32. Color space                              : YUV
  33. Chroma subsampling                       : 4:2:0
  34. Bit depth                                : 10 bits
  35. Scan type                                : Progressive
  36. Bits/(Pixel*Frame)                       : 0.056
  37. Stream size                              : 884 MiB (29%)
  38. Writing library                          : x264 core 120 r2146M bcd41db
  39. Encoding settings                        : cabac=1 / ref=16 / deblock=1:0:0 / analyse=0x3:0x133 / me=umh / subme=10 / psy=1 / fade_compensate=0.00 / psy_rd=1.00:0.00 / mixed_ref=1 / me_range=24 / chroma_me=1 / trellis=2 / 8x8dct=1 / cqm=0 / deadzone=21,11 / fast_pskip=0 / chroma_qp_offset=-2 / threads=3 / sliced_threads=0 / nr=0 / decimate=0 / interlaced=0 / bluray_compat=0 / constrained_intra=0 / fgo=0 / bframes=8 / b_pyramid=2 / b_adapt=2 / b_bias=0 / direct=3 / weightb=1 / open_gop=0 / weightp=2 / keyint=250 / keyint_min=23 / scenecut=40 / intra_refresh=0 / rc_lookahead=60 / rc=crf / mbtree=1 / crf=16.0 / qcomp=0.80 / qpmin=0 / qpmax=32 / qpstep=4 / ip_ratio=1.40 / aq=1:1.00
  40. Language                                 : English
  41. Default                                  : Yes
  42. Forced                                   : No
  43. Matrix coefficients                      : BT.709
  44.  
  45. Audio #1
  46. ID                                       : 2
  47. Format                                   : Vorbis
  48. Format settings, Floor                   : 1 / 8710
  49. Codec ID                                 : A_VORBIS
  50. Duration                                 : 1h 40mn
  51. Bit rate mode                            : Variable
  52. Bit rate                                 : 720 Kbps
  53. Channel(s)                               : 6 channels
  54. Sampling rate                            : 48.0 KHz
  55. Compression mode                         : Lossy
  56. Stream size                              : 519 MiB (17%)
  57. Writing library                          : aoTuV 20110424 (UTC 2011-04-24)
  58. Language                                 : Japanese
  59. Default                                  : Yes
  60. Forced                                   : No
  61.  
  62. Audio #2
  63. ID                                       : 3
  64. Format                                   : Vorbis
  65. Format settings, Floor                   : 1 / 8710
  66. Codec ID                                 : A_VORBIS
  67. Duration                                 : 1h 40mn
  68. Bit rate mode                            : Variable
  69. Bit rate                                 : 720 Kbps
  70. Channel(s)                               : 6 channels
  71. Sampling rate                            : 48.0 KHz
  72. Compression mode                         : Lossy
  73. Stream size                              : 519 MiB (17%)
  74. Writing library                          : aoTuV 20110424 (UTC 2011-04-24)
  75. Language                                 : Italian
  76. Default                                  : No
  77. Forced                                   : No
  78.  
  79. Audio #3
  80. ID                                       : 4
  81. Format                                   : Vorbis
  82. Format settings, Floor                   : 1 / 8710
  83. Codec ID                                 : A_VORBIS
  84. Duration                                 : 1h 40mn
  85. Bit rate mode                            : Variable
  86. Bit rate                                 : 720 Kbps

This paste is large and only partially shown.
View full paste

View raw paste Reply