Author: Not specified Language: text
Description: Not specified Timestamp: 2018-08-11 23:55:02 +0000
View raw paste Reply
  1. General
  2. Unique ID                   : 199864095598443808560555009065361133504 (0x965C6CB5FFDDA1C3A97849EC0AB8CFC0)
  3. Complete name               : D:\N\Predators.2010.REMASTERED.1080p.BluRay.x264.DD5.1-Pahe.in.mkv
  4. Format                      : Matroska
  5. Format version              : Version 4 / Version 2
  6. File size                   : 1.89 GiB
  7. Duration                    : 1 h 46 min
  8. Overall bit rate            : 2 526 kb/s
  9. Movie name                  : Predators (2010)
  10. Encoded date                : UTC 2018-08-08 17:52:28
  11. Writing application         : mkvmerge v15.0.0 ('Duel with the Devil') 64-bit
  12. Writing library             : libebml v1.3.5 + libmatroska v1.4.5
  13. Cover                       : Yes
  14. Attachments                 : cover.jpg
  15. Encoded by                  : Pahe.inâ„  Team
  16.  
  17. Video
  18. ID                          : 1
  19. Format                      : AVC
  20. Format/Info                 : Advanced Video Codec
  21. Format profile              : High@L4.1
  22. Format settings             : CABAC / 5 Ref Frames
  23. Format settings, CABAC      : Yes
  24. Format settings, ReFrames   : 5 frames
  25. Codec ID                    : V_MPEG4/ISO/AVC
  26. Duration                    : 1 h 46 min
  27. Bit rate                    : 2 140 kb/s
  28. Width                       : 1 920 pixels
  29. Height                      : 804 pixels
  30. Display aspect ratio        : 2.40:1
  31. Frame rate mode             : Constant
  32. Frame rate                  : 23.976 (24000/1001) FPS
  33. Color space                 : YUV
  34. Chroma subsampling          : 4:2:0
  35. Bit depth                   : 8 bits
  36. Scan type                   : Progressive
  37. Bits/(Pixel*Frame)          : 0.058
  38. Stream size                 : 1.60 GiB (85%)
  39. Writing library             : x264 core 152 r2851 ba24899
  40. Encoding settings           : cabac=1 / ref=5 / deblock=1:-3:-3 / analyse=0x3:0x133 / me=umh / subme=10 / psy=1 / psy_rd=1.00:0.15 / mixed_ref=1 / me_range=48 / chroma_me=1 / trellis=2 / 8x8dct=1 / cqm=0 / deadzone=21,11 / fast_pskip=0 / chroma_qp_offset=-3 / threads=12 / lookahead_threads=2 / sliced_threads=0 / nr=0 / decimate=0 / interlaced=0 / bluray_compat=0 / constrained_intra=0 / bframes=8 / b_pyramid=2 / b_adapt=2 / b_bias=0 / direct=3 / weightb=1 / open_gop=0 / weightp=2 / keyint=250 / keyint_min=23 / scenecut=40 / intra_refresh=0 / rc_lookahead=60 / rc=crf / mbtree=0 / crf=24.6 / qcomp=0.60 / qpmin=0 / qpmax=69 / qpstep=4 / vbv_maxrate=33500 / vbv_bufsize=29000 / crf_max=0.0 / nal_hrd=none / filler=0 / ip_ratio=1.30 / pb_ratio=1.20 / aq=3:0.70
  41. Default                     : Yes
  42. Forced                      : No
  43.  
  44. Audio
  45. ID                          : 2
  46. Format                      : AC-3
  47. Format/Info                 : Audio Coding 3
  48. Codec ID                    : A_AC3
  49. Duration                    : 1 h 46 min
  50. Bit rate mode               : Constant
  51. Bit rate                    : 384 kb/s
  52. Channel(s)                  : 6 channels
  53. Channel positions           : Front: L C R, Side: L R, LFE
  54. Sampling rate               : 48.0 kHz
  55. Frame rate                  : 31.250 FPS (1536 SPF)
  56. Bit depth                   : 16 bits
  57. Compression mode            : Lossy
  58. Stream size                 : 294 MiB (15%)
  59. Language                    : English
  60. Service kind                : Complete Main
  61. Default                     : No
  62. Forced                      : No
  63.  
  64. Text #1
  65. ID                          : 3
  66. Format                      : UTF-8
  67. Codec ID                    : S_TEXT/UTF8
  68. Codec ID/Info               : UTF-8 Plain Text
  69. Duration                    : 1 h 43 min
  70. Bit rate                    : 23 b/s
  71. Count of elements           : 799
  72. Stream size                 : 18.2 KiB (0%)
  73. Language                    : English
  74. Default                     : Yes
  75. Forced                      : No
  76.  
  77. Text #2
  78. ID                          : 4
  79. Format                      : UTF-8
  80. Codec ID                    : S_TEXT/UTF8
  81. Codec ID/Info               : UTF-8 Plain Text
  82. Duration                    : 1 h 45 min
  83. Bit rate                    : 27 b/s
  84. Count of elements           : 1009
  85. Stream size                 : 21.3 KiB (0%)
  86. Language                    : English
  87. Default                     : No
  88. Forced                      : No
  89.  
  90. Menu
  91. 00:00:00.000                : en:Chapter 1
  92. 00:05:27.035                : en:Chapter 2
  93. 00:07:57.393                : en:Chapter 3
  94. 00:13:33.521                : en:Chapter 4
  95. 00:17:26.587                : en:Chapter 5
  96. 00:20:02.409                : en:Chapter 6
  97. 00:23:46.299                : en:Chapter 7
  98. 00:26:19.119                : en:Chapter 8
  99. 00:31:34.517                : en:Chapter 9
  100. 00:34:56.511                : en:Chapter 10
  101. 00:38:24.719                : en:Chapter 11
  102. 00:41:57.056                : en:Chapter 12
  103. 00:46:12.978                : en:Chapter 13
  104. 00:49:57.786                : en:Chapter 14
  105. 00:53:27.954                : en:Chapter 15
  106. 00:57:43.126                : en:Chapter 16
  107. 01:02:11.853                : en:Chapter 17
  108. 01:05:48.903                : en:Chapter 18
  109. 01:09:38.757                : en:Chapter 19
  110. 01:14:16.994                : en:Chapter 20
  111. 01:16:25.539                : en:Chapter 21

This paste is large and only partially shown.
View full paste

View raw paste Reply