Author: Not specified Language: text
Description: No description (v2) Timestamp: 2013-06-14 04:48:17 +0000
View raw paste Parent paste by: Up.(2009).BluRay.720... Reply
  1. General
  2.  
  3. Complete name                            : Up.(2009).BluRay.720p.x264.Dual-Audio-by.Rosum.mkv
  4. Format                                   : Matroska
  5. Format version                           : Version 4 / Version 2
  6. File size                                : 3.87 GiB
  7. Duration                                 : 1h 36mn
  8. Overall bit rate                         : 5 771 Kbps
  9. Movie name                               : Up { 2009 } - Release for "rosum-clips.blogspot.com"
  10. Encoded date                             : UTC 2013-04-11 02:56:12
  11. Writing application                      : mkvmerge v6.1.0 ('Old Devil') built on Mar  2 2013 14:32:37
  12. Writing library                          : libebml v1.3.0 + libmatroska v1.4.0
  13.  
  14. Video
  15. ID                                       : 1
  16. Format                                   : AVC
  17. Format/Info                              : Advanced Video Codec
  18. Format profile                           : High@L3.1
  19. Format settings, CABAC                   : Yes
  20. Format settings, ReFrames                : 4 frames
  21. Codec ID                                 : V_MPEG4/ISO/AVC
  22. Duration                                 : 1h 36mn
  23. Bit rate                                 : 4 446 Kbps
  24. Width                                    : 1 280 pixels
  25. Height                                   : 720 pixels
  26. Display aspect ratio                     : 16:9
  27. Frame rate mode                          : Constant
  28. Frame rate                               : 23.976 fps
  29. Color space                              : YUV
  30. Chroma subsampling                       : 4:2:0
  31. Bit depth                                : 8 bits
  32. Scan type                                : Progressive
  33. Bits/(Pixel*Frame)                       : 0.201
  34. Stream size                              : 2.94 GiB (76%)
  35. Title                                    : Exclusive Release "Rosum" www.7asryat.com
  36. Writing library                          : x264 core 112
  37. Encoding settings                        : cabac=1 / ref=3 / deblock=1:0:0 / analyse=0x3:0x113 / me=hex / subme=7 / psy=1 / psy_rd=1.00:0.00 / mixed_ref=1 / me_range=16 / chroma_me=1 / trellis=1 / 8x8dct=1 / cqm=0 / deadzone=21,11 / fast_pskip=1 / chroma_qp_offset=-2 / threads=6 / sliced_threads=0 / nr=0 / decimate=1 / interlaced=0 / constrained_intra=0 / bframes=3 / b_pyramid=2 / b_adapt=2 / b_bias=0 / direct=1 / weightb=1 / open_gop=0 / weightp=2 / keyint=240 / keyint_min=23 / scenecut=40 / intra_refresh=0 / rc_lookahead=50 / rc=abr / mbtree=1 / bitrate=4446 / ratetol=1.0 / qcomp=0.60 / qpmin=3 / qpmax=51 / qpstep=4 / ip_ratio=1.40 / aq=1:1.00
  38. Language                                 : English
  39. Default                                  : No
  40. Forced                                   : No
  41. Color primaries                          : BT.709
  42. Transfer characteristics                 : BT.709
  43. Matrix coefficients                      : BT.709
  44.  
  45. Audio #1
  46. ID                                       : 2
  47. Format                                   : AC-3
  48. Format/Info                              : Audio Coding 3
  49. Mode extension                           : CM (complete main)
  50. Format settings, Endianness              : Big
  51. Codec ID                                 : A_AC3
  52. Duration                                 : 1h 36mn
  53. Bit rate mode                            : Constant
  54. Bit rate                                 : 640 Kbps
  55. Channel(s)                               : 6 channels
  56. Channel positions                        : Front: L C R, Side: L R, LFE
  57. Sampling rate                            : 48.0 KHz
  58. Bit depth                                : 16 bits
  59. Compression mode                         : Lossy
  60. Stream size                              : 440 MiB (11%)
  61. Title                                    : Arabic, Original BluRay, AC3, 5.1 ch , 640 kbps, 48.0 KHz
  62. Language                                 : Arabic
  63. Default                                  : Yes
  64. Forced                                   : No
  65.  
  66. Audio #2
  67. ID                                       : 3
  68. Format                                   : AC-3
  69. Format/Info                              : Audio Coding 3
  70. Mode extension                           : CM (complete main)
  71. Format settings, Endianness              : Big
  72. Codec ID                                 : A_AC3
  73. Duration                                 : 1h 36mn
  74. Bit rate mode                            : Constant
  75. Bit rate                                 : 640 Kbps
  76. Channel(s)                               : 6 channels
  77. Channel positions                        : Front: L C R, Side: L R, LFE
  78. Sampling rate                            : 48.0 KHz
  79. Bit depth                                : 16 bits
  80. Compression mode                         : Lossy
  81. Stream size                              : 440 MiB (11%)
  82. Title                                    : English, Original BluRay, AC3, 5.1 ch , 640 kbps, 48.0 KHz
  83. Language                                 : English
  84. Default                                  : No
  85. Forced                                   : No
  86.  
  87. Text #1
  88. ID                                       : 4

This paste is large and only partially shown.
View full paste

View raw paste Parent paste by: Up.(2009).BluRay.720... Reply