Author: nvtuan86 Language: text
Description: Not specified Timestamp: 2017-09-23 09:58:17 +0000
View raw paste Reply
  1. General
  2. Unique ID                                : 191635877203927380729387305762443712701 (0x902BBA3905C97174B96F7ED94E2F58BD)
  3. Complete name                            : D:\VietHD\The.Bad.Batch.2016.720p.BluRay.DD5.1.x264-VietHD\The.Bad.Batch.2016.720p.BluRay.DD5.1.x264-VietHD.mkv
  4. Format                                   : Matroska
  5. Format version                           : Version 4 / Version 2
  6. File size                                : 5.19 GiB
  7. Duration                                 : 1h 58mn
  8. Overall bit rate                         : 6 261 Kbps
  9. Encoded date                             : UTC 2017-09-23 01:28:32
  10. Writing application                      : mkvmerge v14.0.0 ('Flow') 64bit
  11. Writing library                          : libebml v1.3.4 + libmatroska v1.4.5
  12.  
  13. Video
  14. ID                                       : 5
  15. Format                                   : AVC
  16. Format/Info                              : Advanced Video Codec
  17. Format profile                           : High@L4.1
  18. Format settings, CABAC                   : Yes
  19. Format settings, ReFrames                : 12 frames
  20. Codec ID                                 : V_MPEG4/ISO/AVC
  21. Duration                                 : 1h 58mn
  22. Bit rate                                 : 5 500 Kbps
  23. Width                                    : 1 280 pixels
  24. Height                                   : 536 pixels
  25. Display aspect ratio                     : 2.40:1
  26. Frame rate mode                          : Constant
  27. Frame rate                               : 23.976 (24000/1001) fps
  28. Color space                              : YUV
  29. Chroma subsampling                       : 4:2:0
  30. Bit depth                                : 8 bits
  31. Scan type                                : Progressive
  32. Bits/(Pixel*Frame)                       : 0.334
  33. Stream size                              : 4.56 GiB (88%)
  34. Writing library                          : x264 core 150 r2833+21 82447f2 VietHD_Custom
  35. Encoding settings                        : cabac=1 / ref=12 / deblock=1:-3:-3 / analyse=0x3:0x133 / me=umh / subme=10 / psy=1 / fade_compensate=0.00 / psy_rd=1.06:0.00 / mixed_ref=1 / me_range=24 / chroma_me=1 / trellis=2 / 8x8dct=1 / cqm=0 / deadzone=21,11 / fast_pskip=0 / chroma_qp_offset=-2 / threads=12 / lookahead_threads=2 / sliced_threads=0 / nr=0 / decimate=0 / interlaced=0 / bluray_compat=0 / constrained_intra=0 / fgo=0 / bframes=9 / b_pyramid=2 / b_adapt=2 / b_bias=0 / direct=3 / weightb=1 / open_gop=0 / weightp=2 / keyint=250 / keyint_min=23 / scenecut=40 / intra_refresh=0 / rc_lookahead=60 / rc=2pass / mbtree=0 / bitrate=5500 / ratetol=1.0 / qcomp=0.60 / qpmin=0:0:0 / qpmax=69:69:69 / qpstep=4 / cplxblur=20.0 / qblur=0.5 / vbv_maxrate=62500 / vbv_bufsize=78125 / nal_hrd=none / filler=0 / ip_ratio=1.30 / pb_ratio=1.20 / aq=3:0.78 / aq-sensitivity=10.00 / aq-factor=1.00:1.00:1.00 / aq2=0 / aq3=0 / zones=0,680,b=3/13871,14204,b=2/16572,17786,b=2/31408,39268,b=2/64279,86298,b=3/102226,111460,b=3/119797,123206,b=2/133382,150484,b=2
  36. Language                                 : English
  37. Default                                  : Yes
  38. Forced                                   : No
  39. Color range                              : Limited
  40. Matrix coefficients                      : BT.709
  41.  
  42. Audio #1
  43. ID                                       : 1
  44. Format                                   : AC-3
  45. Format/Info                              : Audio Coding 3
  46. Mode extension                           : CM (complete main)
  47. Format settings, Endianness              : Big
  48. Codec ID                                 : A_AC3
  49. Duration                                 : 1h 58mn
  50. Bit rate mode                            : Constant
  51. Bit rate                                 : 640 Kbps
  52. Channel(s)                               : 6 channels
  53. Channel positions                        : Front: L C R, Side: L R, LFE
  54. Sampling rate                            : 48.0 KHz
  55. Frame rate                               : 31.250 fps (1536 spf)
  56. Compression mode                         : Lossy
  57. Stream size                              : 543 MiB (10%)
  58. Language                                 : English
  59. Default                                  : Yes
  60. Forced                                   : No
  61.  
  62. Audio #2
  63. ID                                       : 4
  64. Format                                   : AAC
  65. Format/Info                              : Advanced Audio Codec
  66. Format profile                           : LC
  67. Codec ID                                 : A_AAC
  68. Duration                                 : 1h 58mn
  69. Bit rate                                 : 121 Kbps
  70. Channel(s)                               : 2 channels
  71. Channel positions                        : Front: L R
  72. Sampling rate                            : 48.0 KHz
  73. Frame rate                               : 46.875 fps (1024 spf)
  74. Compression mode                         : Lossy
  75. Delay relative to video                  : 9ms
  76. Stream size                              : 102 MiB (2%)
  77. Title                                    : Commentary with Director Ana Lily Amirpour

This paste is large and only partially shown.
View full paste

View raw paste Reply