Author: Not specified Language: text
Description: Not specified Timestamp: 2019-11-22 12:07:21 +0000
View raw paste Reply
  1. General
  2. Unique ID                   : 326065969516538738175319463908929870395 (0xF54E057DFE4B5CCF8D4D2DB4FAEE9A3B)
  3. Complete name               : E:\Ready.or.Not.2019.1080p.BluRay.x264.DD5.1-Pahe.in.mkv
  4. Format                      : Matroska
  5. Format version              : Version 4 / Version 2
  6. File size                   : 2.55 GiB
  7. Duration                    : 1 h 35 min
  8. Overall bit rate            : 3 825 kb/s
  9. Encoded date                : UTC 2019-11-22 10:43:07
  10. Writing application         : mkvmerge v24.0.0 ('Beyond The Pale') 64-bit
  11. Writing library             : libebml v1.3.6 + libmatroska v1.4.9
  12. Cover                       : Yes
  13. Attachments                 : cover.jpg
  14. Encoded by                  : Pahe.in™ Team
  15.  
  16. Video
  17. ID                          : 1
  18. Format                      : AVC
  19. Format/Info                 : Advanced Video Codec
  20. Format profile              : High@L4.1
  21. Format settings             : CABAC / 5 Ref Frames
  22. Format settings, CABAC      : Yes
  23. Format settings, ReFrames   : 5 frames
  24. Codec ID                    : V_MPEG4/ISO/AVC
  25. Duration                    : 1 h 35 min
  26. Bit rate                    : 3 424 kb/s
  27. Width                       : 1 920 pixels
  28. Height                      : 804 pixels
  29. Display aspect ratio        : 2.40:1
  30. Frame rate mode             : Constant
  31. Frame rate                  : 23.976 (24000/1001) FPS
  32. Color space                 : YUV
  33. Chroma subsampling          : 4:2:0
  34. Bit depth                   : 8 bits
  35. Scan type                   : Progressive
  36. Bits/(Pixel*Frame)          : 0.093
  37. Stream size                 : 2.28 GiB (90%)
  38. Writing library             : x264 core 155 r2901 7d0ff22
  39. Encoding settings           : cabac=1 / ref=5 / deblock=1:-3:-3 / analyse=0x3:0x133 / me=umh / subme=10 / psy=1 / psy_rd=1.00:0.15 / mixed_ref=1 / me_range=32 / chroma_me=1 / trellis=2 / 8x8dct=1 / cqm=0 / deadzone=21,11 / fast_pskip=0 / chroma_qp_offset=-3 / threads=18 / lookahead_threads=3 / sliced_threads=0 / nr=0 / decimate=0 / interlaced=0 / bluray_compat=0 / constrained_intra=0 / bframes=8 / b_pyramid=2 / b_adapt=2 / b_bias=0 / direct=3 / weightb=1 / open_gop=0 / weightp=2 / keyint=250 / keyint_min=23 / scenecut=40 / intra_refresh=0 / rc_lookahead=60 / rc=crf / mbtree=0 / crf=22.1 / qcomp=0.60 / qpmin=0 / qpmax=69 / qpstep=4 / vbv_maxrate=33500 / vbv_bufsize=30000 / crf_max=0.0 / nal_hrd=none / filler=0 / ip_ratio=1.30 / pb_ratio=1.20 / aq=3:0.80
  40. Default                     : Yes
  41. Forced                      : No
  42.  
  43. Audio
  44. ID                          : 2
  45. Format                      : AC-3
  46. Format/Info                 : Audio Coding 3
  47. Commercial name             : Dolby Digital
  48. Codec ID                    : A_AC3
  49. Duration                    : 1 h 35 min
  50. Bit rate mode               : Constant
  51. Bit rate                    : 384 kb/s
  52. Channel(s)                  : 6 channels
  53. Channel layout              : L R C LFE Ls Rs
  54. Sampling rate               : 48.0 kHz
  55. Frame rate                  : 31.250 FPS (1536 SPF)
  56. Bit depth                   : 16 bits
  57. Compression mode            : Lossy
  58. Stream size                 : 262 MiB (10%)
  59. Language                    : English
  60. Service kind                : Complete Main
  61. Default                     : No
  62. Forced                      : No
  63.  
  64. Text #1
  65. ID                          : 3
  66. Format                      : PGS
  67. Muxing mode                 : zlib
  68. Codec ID                    : S_HDMV/PGS
  69. Codec ID/Info               : Picture based subtitle format used on BDs/HD-DVDs
  70. Duration                    : 1 h 35 min
  71. Bit rate                    : 35.2 kb/s
  72. Count of elements           : 2726
  73. Stream size                 : 24.0 MiB (1%)
  74. Language                    : English
  75. Default                     : Yes
  76. Forced                      : No
  77.  
  78. Text #2
  79. ID                          : 4
  80. Format                      : UTF-8
  81. Codec ID                    : S_TEXT/UTF8
  82. Codec ID/Info               : UTF-8 Plain Text
  83. Duration                    : 1 h 33 min
  84. Bit rate                    : 47 b/s
  85. Count of elements           : 1170
  86. Stream size                 : 32.8 KiB (0%)
  87. Language                    : English
  88. Default                     : No
  89. Forced                      : No
  90.  
  91. Menu
  92. 00:00:00.000                : en:绗?01 绔?
  93. 00:03:11.817                : en:绗?02 绔?
  94. 00:06:49.534                : en:绗?03 绔?
  95. 00:09:27.776                : en:绗?04 绔?
  96. 00:12:27.038                : en:绗?05 绔?
  97. 00:16:24.150                : en:绗?06 绔?
  98. 00:21:57.942                : en:绗?07 绔?
  99. 00:25:21.061                : en:绗?08 绔?
  100. 00:28:00.262                : en:绗?09 绔?
  101. 00:31:21.922                : en:绗?10 绔?
  102. 00:34:46.459                : en:绗?11 绔?
  103. 00:36:08.625                : en:绗?12 绔?
  104. 00:38:23.760                : en:绗?13 绔?
  105. 00:41:55.930                : en:绗?14 绔?
  106. 00:45:40.363                : en:绗?15 绔?
  107. 00:48:03.047                : en:绗?16 绔?
  108. 00:51:50.441                : en:绗?17 绔?
  109. 00:54:05.075                : en:绗?18 绔?
  110. 00:57:05.088                : en:绗?19 绔?

This paste is large and only partially shown.
View full paste

View raw paste Reply