Author: Not specified Language: text
Description: (v2) Timestamp: 2018-05-19 03:21:38 +0000
View raw paste Reply
  1.  
  2. General
  3. Unique ID                   : 242786543858710886765493570646757939046 (0xB6A6FCCC38C8FD9D98DF926EE9251766)
  4. Complete name               : D:\N\The.Maze.Runner.2014.REMASTERED.1080p.BluRay.x264.DD5.1-Pahe.in.mkv
  5. Format                      : Matroska
  6. Format version              : Version 4 / Version 2
  7. File size                   : 2.24 GiB
  8. Duration                    : 1 h 53 min
  9. Overall bit rate            : 2 832 kb/s
  10. Movie name                  : The Maze Runner (2014)
  11. Encoded date                : UTC 2018-04-16 09:09:53
  12. Writing application         : mkvmerge v13.0.0 ('The Juggler') 64bit
  13. Writing library             : libebml v1.3.4 + libmatroska v1.4.5
  14. Cover                       : Yes
  15. Attachments                 : cover.jpg
  16. Encoded by                  : Pahe.inā?¢ Team
  17.  
  18. Video
  19. ID                          : 1
  20. Format                      : AVC
  21. Format/Info                 : Advanced Video Codec
  22. Format profile              : High@L4.1
  23. Format settings             : CABAC / 5 Ref Frames
  24. Format settings, CABAC      : Yes
  25. Format settings, ReFrames   : 5 frames
  26. Codec ID                    : V_MPEG4/ISO/AVC
  27. Duration                    : 1 h 53 min
  28. Bit rate                    : 2 436 kb/s
  29. Width                       : 1 920 pixels
  30. Height                      : 800 pixels
  31. Display aspect ratio        : 2.40:1
  32. Frame rate mode             : Constant
  33. Frame rate                  : 23.976 (24000/1001) FPS
  34. Color space                 : YUV
  35. Chroma subsampling          : 4:2:0
  36. Bit depth                   : 8 bits
  37. Scan type                   : Progressive
  38. Bits/(Pixel*Frame)          : 0.066
  39. Stream size                 : 1.93 GiB (86%)
  40. Writing library             : x264 core 152 r2851 ba24899
  41. Encoding settings           : cabac=1 / ref=5 / deblock=1:-3:-3 / analyse=0x3:0x133 / me=umh / subme=10 / psy=1 / psy_rd=1.00:0.15 / mixed_ref=1 / me_range=32 / chroma_me=1 / trellis=2 / 8x8dct=1 / cqm=0 / deadzone=21,11 / fast_pskip=0 / chroma_qp_offset=-3 / threads=18 / lookahead_threads=3 / sliced_threads=0 / nr=0 / decimate=0 / interlaced=0 / bluray_compat=0 / constrained_intra=0 / bframes=8 / b_pyramid=2 / b_adapt=2 / b_bias=0 / direct=3 / weightb=1 / open_gop=0 / weightp=2 / keyint=250 / keyint_min=23 / scenecut=40 / intra_refresh=0 / rc_lookahead=60 / rc=crf / mbtree=0 / crf=23.5 / qcomp=0.60 / qpmin=0 / qpmax=69 / qpstep=4 / vbv_maxrate=45800 / vbv_bufsize=36000 / crf_max=0.0 / nal_hrd=none / filler=0 / ip_ratio=1.30 / pb_ratio=1.20 / aq=1:0.80
  42. Default                     : Yes
  43. Forced                      : No
  44.  
  45. Audio
  46. ID                          : 2
  47. Format                      : AC-3
  48. Format/Info                 : Audio Coding 3
  49. Codec ID                    : A_AC3
  50. Duration                    : 1 h 53 min
  51. Bit rate mode               : Constant
  52. Bit rate                    : 384 kb/s
  53. Channel(s)                  : 6 channels
  54. Channel positions           : Front: L C R, Side: L R, LFE
  55. Sampling rate               : 48.0 kHz
  56. Frame rate                  : 31.250 FPS (1536 SPF)
  57. Bit depth                   : 16 bits
  58. Compression mode            : Lossy
  59. Stream size                 : 312 MiB (14%)
  60. Language                    : English
  61. Service kind                : Complete Main
  62. Default                     : No
  63. Forced                      : No
  64.  
  65. Text #1
  66. ID                          : 3
  67. Format                      : UTF-8
  68. Codec ID                    : S_TEXT/UTF8
  69. Codec ID/Info               : UTF-8 Plain Text
  70. Duration                    : 1 h 44 min
  71. Bit rate                    : 40 b/s
  72. Count of elements           : 1260
  73. Stream size                 : 31.4 KiB (0%)
  74. Language                    : English
  75. Default                     : No
  76. Forced                      : No
  77.  
  78. Text #2
  79. ID                          : 4
  80. Format                      : PGS
  81. Muxing mode                 : zlib
  82. Codec ID                    : S_HDMV/PGS
  83. Codec ID/Info               : Picture based subtitle format used on BDs/HD-DVDs
  84. Duration                    : 1 h 45 min
  85. Bit rate                    : 31.6 kb/s
  86. Count of elements           : 3058
  87. Stream size                 : 23.9 MiB (1%)
  88. Language                    : English
  89. Default                     : Yes
  90. Forced                      : No
  91.  
  92. Menu
  93. 00:00:00.000                : en:Chapter 1
  94. 00:03:12.650                : en:Chapter 2
  95. 00:07:15.977                : en:Chapter 3
  96. 00:10:25.249                : en:Chapter 4
  97. 00:14:15.563                : en:Chapter 5
  98. 00:17:21.248                : en:Chapter 6
  99. 00:19:33.338                : en:Chapter 7
  100. 00:23:21.024                : en:Chapter 8
  101. 00:24:36.391                : en:Chapter 9
  102. 00:28:13.108                : en:Chapter 10
  103. 00:31:26.009                : en:Chapter 11
  104. 00:34:12.050                : en:Chapter 12
  105. 00:37:11.812                : en:Chapter 13
  106. 00:41:00.875                : en:Chapter 14
  107. 00:42:16.617                : en:Chapter 15
  108. 00:45:47.453                : en:Chapter 16
  109. 00:48:31.825                : en:Chapter 17
  110. 00:52:57.799                : en:Chapter 18
  111. 00:55:21.776                : en:Chapter 19

This paste is large and only partially shown.
View full paste

View raw paste Reply