Author: Not specified Language: text
Description: Not specified Timestamp: 2018-04-06 14:19:04 +0000
View raw paste Reply
  1. General
  2. Unique ID                   : 248369294125113600788527164310410212903 (0xBADA2FA3150E90EC890924779413B627)
  3. Complete name               : E:\Pillars.Of.The.Earth.Part.1-8.720p.BluRay.X264-REWARD\Pillars.of.the.Earth.Part.1.720p.BluRay.X264-REWARD_new.mkv
  4. Format                      : Matroska
  5. Format version              : Version 4 / Version 2
  6. File size                   : 425 MiB
  7. Duration                    : 56 min 37 s
  8. Overall bit rate            : 1 051 kb/s
  9. Encoded date                : UTC 2018-04-06 00:09:51
  10. Writing application         : mkvmerge v13.0.0 ('The Juggler') 64bit
  11. Writing library             : libebml v1.3.4 + libmatroska v1.4.5
  12. Cover                       : Yes
  13. Attachments                 : cover.jpg
  14.  
  15. Video
  16. ID                          : 1
  17. Format                      : AVC
  18. Format/Info                 : Advanced Video Codec
  19. Format profile              : High@L4
  20. Format settings             : CABAC / 8 Ref Frames
  21. Format settings, CABAC      : Yes
  22. Format settings, ReFrames   : 8 frames
  23. Codec ID                    : V_MPEG4/ISO/AVC
  24. Duration                    : 56 min 37 s
  25. Bit rate                    : 958 kb/s
  26. Width                       : 1 280 pixels
  27. Height                      : 720 pixels
  28. Display aspect ratio        : 16:9
  29. Frame rate mode             : Constant
  30. Frame rate                  : 25.000 FPS
  31. Color space                 : YUV
  32. Chroma subsampling          : 4:2:0
  33. Bit depth                   : 8 bits
  34. Scan type                   : Progressive
  35. Bits/(Pixel*Frame)          : 0.042
  36. Stream size                 : 388 MiB (91%)
  37. Writing library             : x264 core 152 r2851 ba24899
  38. Encoding settings           : cabac=1 / ref=8 / deblock=1:-2:-2 / analyse=0x3:0x133 / me=umh / subme=9 / psy=1 / psy_rd=1.00:0.15 / mixed_ref=1 / me_range=24 / chroma_me=1 / trellis=2 / 8x8dct=1 / cqm=0 / deadzone=21,11 / fast_pskip=1 / chroma_qp_offset=-3 / threads=22 / lookahead_threads=1 / sliced_threads=0 / nr=0 / decimate=1 / interlaced=0 / bluray_compat=0 / constrained_intra=0 / bframes=3 / b_pyramid=2 / b_adapt=2 / b_bias=0 / direct=3 / weightb=1 / open_gop=0 / weightp=2 / keyint=250 / keyint_min=25 / scenecut=40 / intra_refresh=0 / rc_lookahead=60 / rc=2pass / mbtree=1 / bitrate=958 / ratetol=1.0 / qcomp=0.60 / qpmin=0 / qpmax=69 / qpstep=4 / cplxblur=20.0 / qblur=0.5 / vbv_maxrate=17500 / vbv_bufsize=19000 / nal_hrd=none / filler=0 / ip_ratio=1.40 / aq=1:0.80
  39. Default                     : Yes
  40. Forced                      : No
  41.  
  42. Audio
  43. ID                          : 2
  44. Format                      : AAC
  45. Format/Info                 : Advanced Audio Codec
  46. Format profile              : LC
  47. Codec ID                    : A_AAC-2
  48. Duration                    : 56 min 37 s
  49. Bit rate                    : 89.4 kb/s
  50. Channel(s)                  : 2 channels
  51. Channel positions           : Front: L R
  52. Sampling rate               : 48.0 kHz
  53. Frame rate                  : 46.875 FPS (1024 SPF)
  54. Compression mode            : Lossy
  55. Delay relative to video     : 9 ms
  56. Stream size                 : 36.2 MiB (9%)
  57. Title                       : encoded by Pahe.in
  58. Language                    : English
  59. Default                     : No
  60. Forced                      : No
  61.  
  62. Text #1
  63. ID                          : 3
  64. Format                      : UTF-8
  65. Codec ID                    : S_TEXT/UTF8
  66. Codec ID/Info               : UTF-8 Plain Text
  67. Duration                    : 51 min 56 s
  68. Bit rate                    : 52 b/s
  69. Count of elements           : 552
  70. Stream size                 : 20.0 KiB (0%)
  71. Language                    : English
  72. Default                     : Yes
  73. Forced                      : No
  74.  
  75. Text #2
  76. ID                          : 4
  77. Format                      : UTF-8
  78. Codec ID                    : S_TEXT/UTF8
  79. Codec ID/Info               : UTF-8 Plain Text
  80. Duration                    : 52 min 45 s
  81. Bit rate                    : 55 b/s
  82. Count of elements           : 727
  83. Stream size                 : 21.5 KiB (0%)
  84. Language                    : English
  85. Default                     : No
  86. Forced                      : No
  87.  
  88. Menu
  89. 00:00:00.000                : en:00:00:00.000
  90. 00:01:02.462                : en:00:01:02.462
  91. 00:14:58.097                : en:00:14:58.097
  92. 00:27:04.556                : en:00:27:04.556
  93. 00:40:44.175                : en:00:40:44.175
  94. 00:54:34.571                : en:00:54:34.571
  95.  
  96.  
View raw paste Reply