Author: Not specified Language: text
Description: Not specified Timestamp: 2013-06-17 12:24:46 +0000
View raw paste Reply
  1. Complete name : Invasion.of.the.Body.Snatchers.1978.720p.BluRay.x264-Skazhutin.mkv
  2. Format : Matroska
  3. File size : 7.64 GiB
  4. Duration : 1h 55mn
  5. Overall bit rate : 9 459 Kbps
  6. Encoded date : UTC 2010-09-27 07:49:53
  7. Writing application : mkvmerge v4.3.0 ('Escape from the Island') built on Sep 5 2010 10:30:51
  8. Writing library : libebml v1.0.0 + libmatroska v1.0.0
  9. Cover : Yes / Yes
  10.  
  11. Video
  12. ID : 1
  13. Format : AVC
  14. Format/Info : Advanced Video Codec
  15. Format profile : High@L4.1
  16. Format settings, CABAC : Yes
  17. Format settings, ReFrames : 8 frames
  18. Muxing mode : Container profile=Unknown@4.1
  19. Codec ID : V_MPEG4/ISO/AVC
  20. Duration : 1h 55mn
  21. Bit rate : 7 569 Kbps
  22. Width : 1 280 pixels
  23. Height : 692 pixels
  24. Display aspect ratio : 1.850
  25. Frame rate : 23.976 fps
  26. Color space : YUV
  27. Chroma subsampling : 4:2:0
  28. Bit depth : 8 bits
  29. Scan type : Progressive
  30. Bits/(Pixel*Frame) : 0.356
  31. Stream size : 6.11 GiB (80%)
  32. Title : 1280x692 (1.850:1); 7755 Kbps; 23,976 fps; 0,365 bpp
  33. Writing library : x264 core 105 r1724 b02df7b
  34. Encoding settings : cabac=1 / ref=8 / deblock=1:-3:-3 / analyse=0x3:0x113 / me=umh / subme=10 / psy=1 / psy_rd=0.80:0.00 / mixed_ref=1 / me_range=32 / chroma_me=1 / trellis=2 / 8x8dct=1 / cqm=0 / deadzone=21,11 / fast_pskip=1 / chroma_qp_offset=-2 / threads=6 / sliced_threads=0 / nr=0 / decimate=1 / interlaced=0 / constrained_intra=0 / bframes=9 / b_pyramid=2 / b_adapt=2 / b_bias=0 / direct=3 / weightb=1 / open_gop=0 / weightp=2 / keyint=250 / keyint_min=23 / scenecut=40 / intra_refresh=0 / rc_lookahead=60 / rc=crf / mbtree=0 / crf=20.1 / qcomp=0.68 / qpmin=10 / qpmax=51 / qpstep=4 / vbv_maxrate=50000 / vbv_bufsize=62500 / crf_max=0.0 / ip_ratio=1.40 / pb_ratio=1.30 / aq=1:0.80 / nal_hrd=none
  35. Matrix coefficients : BT.709-5, BT.1361, IEC 61966-2-4 709, SMPTE RP177
  36.  
  37. Audio #1
  38. ID : 2
  39. Format : AC-3
  40. Format/Info : Audio Coding 3
  41. Mode extension : CM (complete main)
  42. Codec ID : A_AC3
  43. Duration : 1h 55mn
  44. Bit rate mode : Constant
  45. Bit rate : 192 Kbps
  46. Channel(s) : 2 channels
  47. Channel positions : Front: L R
  48. Sampling rate : 48.0 KHz
  49. Bit depth : 16 bits
  50. Stream size : 159 MiB (2%)
  51. Title : Dolby Digital Audio / 2.0 / 48 kHz / 192 kbps; VO
  52. Language : Russian
  53.  
  54. Audio #2
  55. ID : 3
  56. Format : DTS
  57. Format/Info : Digital Theater Systems
  58. Codec ID : A_DTS
  59. Duration : 1h 55mn
  60. Bit rate mode : Constant
  61. Bit rate : 1 510 Kbps
  62. Channel(s) : 6 channels
  63. Channel positions : Front: L C R, Side: L R, LFE
  64. Sampling rate : 48.0 KHz
  65. Bit depth : 24 bits
  66. Stream size : 1.22 GiB (16%)
  67. Title : DTS Audio / 5.1 / 48 kHz / 1509 kbps / 24-bit; Original
  68.  
  69. Text #1
  70. ID : 4
  71. Format : UTF-8
  72. Codec ID : S_TEXT/UTF8
  73. Codec ID/Info : UTF-8 Plain Text
  74.  
  75. Text #2
  76. ID : 5
  77. Format : UTF-8
  78. Codec ID : S_TEXT/UTF8
  79. Codec ID/Info : UTF-8 Plain Text
  80. Language : French
  81.  
  82. Menu
  83. 00:00:00.000 : en:00:00:00.000
  84. 00:03:51.564 : en:00:03:51.564
  85. 00:07:11.514 : en:00:07:11.514
  86. 00:11:09.418 : en:00:11:09.418
  87. 00:17:27.588 : en:00:17:27.588
  88. 00:20:39.446 : en:00:20:39.446
  89. 00:23:59.146 : en:00:23:59.146
  90. 00:26:45.687 : en:00:26:45.687
  91. 00:28:43.012 : en:00:28:43.012
  92. 00:32:04.172 : en:00:32:04.172
  93. 00:36:31.439 : en:00:36:31.439
  94. 00:41:10.468 : en:00:41:10.468
  95. 00:45:31.103 : en:00:45:31.103
  96. 00:47:07.741 : en:00:47:07.741
  97. 00:52:39.114 : en:00:52:39.114
  98. 00:57:27.277 : en:00:57:27.277
  99. 01:00:12.108 : en:01:00:12.108
  100. 01:01:41.656 : en:01:01:41.656
  101. 01:05:04.817 : en:01:05:04.817
  102. 01:07:24.540 : en:01:07:24.540
  103. 01:10:48.077 : en:01:10:48.077
  104. 01:15:22.184 : en:01:15:22.184
  105. 01:19:21.798 : en:01:19:21.798
  106. 01:22:05.587 : en:01:22:05.587
  107. 01:26:44.574 : en:01:26:44.574
  108. 01:31:00.371 : en:01:31:00.371
  109. 01:34:58.025 : en:01:34:58.025
  110. 01:36:27.406 : en:01:36:27.406
  111. 01:42:07.412 : en:01:42:07.412
  112. 01:45:42.961 : en:01:45:42.961
  113. 01:51:09.579 : en:01:51:09.579
  114. 01:54:20.645 : en:01:54:20.645
View raw paste Reply