Author: Not specified Language: text
Description: Not specified Timestamp: 2013-06-14 14:34:55 +0000
View raw paste Reply
  1. General
  2. Unique ID : 193989696963279368180027700592501016235 (0x91F10E7F3335A3EE8CE6DDF3AF6746AB)
  3. Complete name : Cast.Away.2000.720p.BluRay.DTS.x264-RuDE.mkv
  4. Format : Matroska
  5. Format version : Version 2
  6. File size : 7.96 GiB
  7. Duration : 2h 23mn
  8. Overall bit rate : 7 925 Kbps
  9. Encoded date : UTC 2009-11-30 08:56:19
  10. Writing application : mkvmerge v2.9.8 ('C'est le bon') built on Aug 13 2009 12:49:06
  11. Writing library : libebml v0.7.7 + libmatroska v0.8.1
  12.  
  13. Video
  14. ID : 1
  15. Format : AVC
  16. Format/Info : Advanced Video Codec
  17. Format profile : High@L4.1
  18. Format settings, CABAC : Yes
  19. Format settings, ReFrames : 9 frames
  20. Codec ID : V_MPEG4/ISO/AVC
  21. Duration : 2h 23mn
  22. Bit rate : 6 190 Kbps
  23. Width : 1 280 pixels
  24. Height : 692 pixels
  25. Display aspect ratio : 1.850
  26. Frame rate : 23.976 fps
  27. Color space : YUV
  28. Chroma subsampling : 4:2:0
  29. Bit depth : 8 bits
  30. Scan type : Progressive
  31. Bits/(Pixel*Frame) : 0.291
  32. Stream size : 6.06 GiB (76%)
  33. Writing library : x264 core 75 r1259M dd026f2
  34. Encoding settings : cabac=1 / ref=9 / deblock=1:-3:-3 / analyse=0x3:0x113 / me=umh / subme=10 / psy=1 / psy_rd=1.0:0.2 / mixed_ref=1 / me_range=24 / chroma_me=1 / trellis=2 / 8x8dct=1 / cqm=0 / deadzone=21,11 / chroma_qp_offset=-3 / threads=6 / nr=0 / decimate=1 / mbaff=0 / bframes=4 / b_pyramid=1 / b_adapt=2 / b_bias=0 / direct=3 / wpredb=1 / keyint=250 / keyint_min=25 / scenecut=40 / rc_lookahead=0 / rc=2pass / mbtree=0 / bitrate=6190 / ratetol=1.0 / qcomp=0.80 / qpmin=10 / qpmax=51 / qpstep=4 / cplxblur=20.0 / qblur=0.5 / vbv_maxrate=50000 / vbv_bufsize=50000 / ip_ratio=1.40 / pb_ratio=1.30 / aq=1:0.80 / pulldown=0 / nal_hrd=0
  35. Language : English
  36.  
  37. Audio #1
  38. ID : 2
  39. Format : DTS
  40. Format/Info : Digital Theater Systems
  41. Codec ID : A_DTS
  42. Duration : 2h 23mn
  43. Bit rate mode : Constant
  44. Bit rate : 1 510 Kbps
  45. Channel(s) : 6 channels
  46. Channel positions : Front: L C R, Side: L R, LFE
  47. Sampling rate : 48.0 KHz
  48. Bit depth : 24 bits
  49. Compression mode : Lossy
  50. Stream size : 1.52 GiB (19%)
  51. Title : DTS 5.1 @1.5 Mbps
  52. Language : English
  53.  
  54. Audio #2
  55. ID : 3
  56. Format : AC-3
  57. Format/Info : Audio Coding 3
  58. Mode extension : CM (complete main)
  59. Codec ID : A_AC3
  60. Duration : 2h 23mn
  61. Bit rate mode : Constant
  62. Bit rate : 224 Kbps
  63. Channel(s) : 2 channels
  64. Channel positions : Front: L R
  65. Sampling rate : 48.0 KHz
  66. Bit depth : 16 bits
  67. Compression mode : Lossy
  68. Stream size : 230 MiB (3%)
  69. Title : Commentary AC3 2.0 @ 224 kbps
  70. Language : English
  71.  
  72. Text #1
  73. ID : 4
  74. Format : UTF-8
  75. Codec ID : S_TEXT/UTF8
  76. Codec ID/Info : UTF-8 Plain Text
  77. Language : English
  78.  
  79. Text #2
  80. ID : 5
  81. Format : UTF-8
  82. Codec ID : S_TEXT/UTF8
  83. Codec ID/Info : UTF-8 Plain Text
  84. Language : Dutch
  85.  
  86. Text #3
  87. ID : 6
  88. Format : UTF-8
  89. Codec ID : S_TEXT/UTF8
  90. Codec ID/Info : UTF-8 Plain Text
  91. Language : French
  92.  
  93. Text #4
  94. ID : 7
  95. Format : UTF-8
  96. Codec ID : S_TEXT/UTF8
  97. Codec ID/Info : UTF-8 Plain Text
  98. Language : German
  99.  
  100. Text #5
  101. ID : 8
  102. Format : UTF-8
  103. Codec ID : S_TEXT/UTF8
  104. Codec ID/Info : UTF-8 Plain Text
  105. Language : Portuguese
  106.  
  107. Text #6
  108. ID : 9
  109. Format : UTF-8
  110. Codec ID : S_TEXT/UTF8
  111. Codec ID/Info : UTF-8 Plain Text
  112. Language : Spanish
  113.  
  114. Text #7
  115. ID : 10
  116. Format : UTF-8
  117. Codec ID : S_TEXT/UTF8
  118. Codec ID/Info : UTF-8 Plain Text
  119. Language : Swedish
View raw paste Reply