Slexy.org is shutting down and stopped accepting new Pastes on May 4th, 2021.
Existing Pastes will stop being available on or after May 10th, 2021.
Author: Not specified Language: text
Description: (v2) Timestamp: 2017-09-18 15:15:29 +0000
View raw paste Parent paste by: Not specified Reply
  1. General
  2. Source                      : Pirates.of.the.Caribbean.Dead.Men.Tell.No.Tales.2017.BluRay.1080p.DTS-HD.MA.7.1.AVC.REMUX-FraMeSToR
  3. Format                      : Matroska
  4. Format version              : Version 4 / Version 2
  5. File size                   : 3.04 GiB
  6. Duration                    : 2 h 9 min
  7. Overall bit rate            : 3 367 kb/s
  8. Movie name                  : Pirates of the Caribbean: Dead Men Tell No Tales (2017)
  9. Encoded date                : UTC 2017-09-13 04:43:06
  10. Writing application         : mkvmerge v13.0.0 ('The Juggler') 64bit
  11. Writing library             : libebml v1.3.4 + libmatroska v1.4.5
  12. Cover                       : Yes
  13. Attachments                 : cover.jpg
  14. Encoder                     : Pahe.inā?¢ team
  15.  
  16. Video
  17. ID                          : 1
  18. Format                      : AVC
  19. Format/Info                 : Advanced Video Codec
  20. Format profile              : High@L4.1
  21. Format settings, CABAC      : Yes
  22. Format settings, RefFrames  : 5 frames
  23. Codec ID                    : V_MPEG4/ISO/AVC
  24. Duration                    : 2 h 9 min
  25. Bit rate                    : 2 970 kb/s
  26. Width                       : 1 920 pixels
  27. Height                      : 800 pixels
  28. Display aspect ratio        : 2.40:1
  29. Frame rate mode             : Constant
  30. Frame rate                  : 23.976 (24000/1001) FPS
  31. Color space                 : YUV
  32. Chroma subsampling          : 4:2:0
  33. Bit depth                   : 8 bits
  34. Scan type                   : Progressive
  35. Bits/(Pixel*Frame)          : 0.081
  36. Stream size                 : 2.68 GiB (88%)
  37. Writing library             : x264 core 152 r2851 ba24899
  38. Encoding settings           : cabac=1 / ref=5 / deblock=1:-3:-3 / analyse=0x3:0x133 / me=umh / subme=11 / psy=1 / psy_rd=1.00:0.15 / mixed_ref=1 / me_range=48 / chroma_me=1 / trellis=2 / 8x8dct=1 / cqm=0 / deadzone=21,11 / fast_pskip=0 / chroma_qp_offset=-3 / threads=25 / lookahead_threads=4 / sliced_threads=0 / nr=0 / decimate=0 / interlaced=0 / bluray_compat=0 / constrained_intra=0 / bframes=8 / b_pyramid=2 / b_adapt=2 / b_bias=0 / direct=3 / weightb=1 / open_gop=0 / weightp=2 / keyint=250 / keyint_min=23 / scenecut=40 / intra_refresh=0 / rc_lookahead=60 / rc=crf / mbtree=0 / crf=26.0 / qcomp=0.70 / qpmin=0 / qpmax=69 / qpstep=4 / vbv_maxrate=44000 / vbv_bufsize=50000 / crf_max=0.0 / nal_hrd=none / filler=0 / ip_ratio=0.90 / pb_ratio=1.20 / aq=3:0.80
  39. Default                     : Yes
  40. Forced                      : No
  41. Color range                 : Limited
  42. Matrix coefficients         : BT.709
  43.  
  44. Audio
  45. ID                          : 2
  46. Format                      : AC-3
  47. Format/Info                 : Audio Coding 3
  48. Format settings, Endianness : Big
  49. Codec ID                    : A_AC3
  50. Duration                    : 2 h 9 min
  51. Bit rate mode               : Constant
  52. Bit rate                    : 384 kb/s
  53. Channel(s)                  : 6 channels
  54. Channel positions           : Front: L C R, Side: L R, LFE
  55. Sampling rate               : 48.0 kHz
  56. Frame rate                  : 31.250 FPS (1536 SPF)
  57. Bit depth                   : 16 bits
  58. Compression mode            : Lossy
  59. Stream size                 : 355 MiB (11%)
  60. Language                    : English
  61. Service kind                : Complete Main
  62. Default                     : No
  63. Forced                      : No
  64.  
  65. Text
  66. ID                          : 3
  67. Format                      : PGS
  68. Muxing mode                 : zlib
  69. Codec ID                    : S_HDMV/PGS
  70. Codec ID/Info               : Picture based subtitle format used on BDs/HD-DVDs
  71. Duration                    : 2 h 7 min
  72. Bit rate                    : 33.1 kb/s
  73. Count of elements           : 3544
  74. Stream size                 : 30.3 MiB (1%)
  75. Language                    : English
  76. Default                     : Yes
  77. Forced                      : No
  78.  
  79. Menu
  80. 00:00:00.000                : en:Father's Curse
  81. 00:05:49.516                : en:"Arrest Him"
  82. 00:08:34.222                : en:Captain Salazar
  83. 00:13:40.820                : en:"Stop That Witch"
  84. 00:16:29.155                : en:Runaway Bank
  85. 00:22:33.852                : en:Bad Luck
  86. 00:25:19.268                : en:"Hidden In The Stars"
  87. 00:28:06.101                : en:"We Are Free"
  88. 00:31:41.775                : en:Blood Moon
  89. 00:33:44.814                : en:"Looking For A Pirate"
  90. 00:37:02.053                : en:Barbossa's Treasure
  91. 00:42:27.712                : en:"Final Words"
  92. 00:49:09.071                : en:"Cordiality"
  93. 00:54:00.279                : en:Bluffing
  94. 00:57:19.394                : en:"Closer Than You Think"
  95. 01:00:38.718                : en:Salazar's Story
  96. 01:08:29.939                : en:Mutiny
  97. 01:11:57.021                : en:Ghost Sharks
  98. 01:16:50.940                : en:"Unscratchable Itch"
  99. 01:19:27.471                : en:Wedding Day
  100. 01:25:04.808                : en:"Just Believe Her"
  101. 01:27:42.174                : en:"So You're An Orphan"
  102. 01:31:43.790                : en:"Nowhere To Hide"
  103. 01:38:22.814                : en:The Island
  104. 01:42:36.776                : en:Poseidon's Trident
  105. 01:47:23.562                : en:"All Must Divide"

This paste is large and only partially shown.
View full paste

View raw paste Parent paste by: Not specified Reply