Slexy.org is shutting down and stopped accepting new Pastes on May 4th, 2021.
Existing Pastes will stop being available on or after May 10th, 2021.
Author: Not specified Language: text
Description: Not specified Timestamp: 2021-04-08 07:38:34 +0000
View raw paste Reply
  1. Format                      : Matroska
  2. Format version              : Version 4
  3. File size                   : 3.35 GiB
  4. Duration                    : 3 h 2 min
  5. Overall bit rate            : 2 626 kb/s
  6. Movie name                  : Batman v Superman: Dawn of Justice 2016 Extended IMAX - Pahe.in
  7. Encoded date                : UTC 2021-04-07 22:46:05
  8. Writing application         : mkvmerge v24.0.0 ('Beyond The Pale') 64-bit
  9. Writing library             : libebml v1.3.6 + libmatroska v1.4.9
  10. Cover                       : Yes
  11. Attachments                 : cover.jpg
  12. Encoded by                  : Pahe.in™ Team
  13.  
  14. Video
  15. ID                          : 1
  16. Format                      : HEVC
  17. Format/Info                 : High Efficiency Video Coding
  18. Format profile              : Main 10@L4@High
  19. Codec ID                    : V_MPEGH/ISO/HEVC
  20. Duration                    : 3 h 2 min
  21. Bit rate                    : 2 063 kb/s
  22. Width                       : 1 920 pixels
  23. Height                      : 1 080 pixels
  24. Display aspect ratio        : 16:9
  25. Frame rate mode             : Constant
  26. Frame rate                  : 23.976 (24000/1001) FPS
  27. Color space                 : YUV
  28. Chroma subsampling          : 4:2:0
  29. Bit depth                   : 10 bits
  30. Bits/(Pixel*Frame)          : 0.041
  31. Stream size                 : 2.63 GiB (79%)
  32. Writing library             : x265 3.2+5-gfbe9fef31:[Windows][GCC 9.2.0][64 bit] 10bit
  33. Encoding settings           : cpuid=1111039 / frame-threads=5 / numa-pools=24 / wpp / no-pmode / no-pme / no-psnr / no-ssim / log-level=2 / input-csp=1 / input-res=1920x1080 / interlace=0 / total-frames=262625 / level-idc=40 / high-tier=1 / uhd-bd=0 / ref=3 / no-allow-non-conformance / repeat-headers / annexb / aud / hrd / info / hash=0 / no-temporal-layers / no-open-gop / min-keyint=24 / keyint=240 / gop-lookahead=0 / bframes=4 / b-adapt=2 / b-pyramid / bframe-bias=0 / rc-lookahead=25 / lookahead-slices=4 / scenecut=40 / radl=0 / no-splice / no-intra-refresh / ctu=64 / min-cu-size=8 / no-rect / no-amp / max-tu-size=32 / tu-inter-depth=1 / tu-intra-depth=1 / limit-tu=0 / rdoq-level=2 / dynamic-rd=0.00 / no-ssim-rd / signhide / no-tskip / nr-intra=0 / nr-inter=0 / no-constrained-intra / no-strong-intra-smoothing / max-merge=3 / limit-refs=1 / limit-modes / me=2 / subme=3 / merange=57 / temporal-mvp / no-hme / weightp / no-weightb / no-analyze-src-pics / deblock=-3:-3 / no-sao / no-sao-non-deblock / rd=4 / selective-sao=0 / early-skip / rskip / no-fast-intra / no-tskip-fast / no-cu-lossless / b-intra / no-splitrd-skip / rdpenalty=0 / psy-rd=2.00 / psy-rdoq=0.00 / no-rd-refine / no-lossless / cbqpoffs=0 / crqpoffs=0 / rc=crf / crf=25.0 / qcomp=0.60 / qpstep=4 / stats-write=0 / stats-read=0 / vbv-maxrate=18000 / vbv-bufsize=17500 / vbv-init=0.9 / crf-max=0.0 / crf-min=0.0 / ipratio=1.40 / pbratio=1.30 / aq-mode=3 / aq-strength=0.85 / cutree / zone-count=0 / no-strict-cbr / qg-size=32 / no-rc-grain / qpmax=69 / qpmin=0 / no-const-vbv / sar=0 / overscan=0 / videoformat=5 / range=0 / colorprim=1 / transfer=2 / colormatrix=1 / chromaloc=0 / display-window=0 / cll=0,0 / min-luma=0 / max-luma=1023 / log2-max-poc-lsb=8 / vui-timing-info / vui-hrd-info / slices=1 / no-opt-qp-pps / no-opt-ref-list-length-pps / no-multi-pass-opt-rps / scenecut-bias=0.05 / no-opt-cu-delta-qp / no-aq-motion / no-hdr / no-hdr-opt / no-dhdr10-opt / no-idr-recovery-sei / analysis-reuse-level=5 / scale-factor=0 / refine-intra=0 / refine-inter=0 / refine-mv=1 / refine-ctu-distortion=0 / no-limit-sao / ctu-info=0 / no-lowpass-dct / refine-analysis-type=0 / copy-pic=1 / max-ausize-factor=1.0 / no-dynamic-refine / no-single-sei / no-hevc-aq / no-svt / no-field / qp-adaptation-range=1.00
  34. Default                     : Yes
  35. Forced                      : No
  36. Color range                 : Limited
  37. Color primaries             : BT.709
  38. Matrix coefficients         : BT.709
  39.  
  40. Audio #1
  41. ID                          : 2
  42. Format                      : E-AC-3
  43. Format/Info                 : Enhanced AC-3
  44. Commercial name             : Dolby Digital Plus
  45. Codec ID                    : A_EAC3
  46. Duration                    : 3 h 2 min
  47. Bit rate mode               : Constant
  48. Bit rate                    : 448 kb/s
  49. Channel(s)                  : 8 channels
  50. Channel layout              : L R C LFE Ls Rs Lb Rb
  51. Sampling rate               : 48.0 kHz
  52. Frame rate                  : 31.250 FPS (1536 SPF)
  53. Compression mode            : Lossy
  54. Stream size                 : 585 MiB (17%)
  55. Language                    : English
  56. Service kind                : Complete Main
  57. Default                     : No
  58. Forced                      : No
  59.  
  60. Audio #2
  61. ID                          : 3
  62. Format                      : AAC LC
  63. Format/Info                 : Advanced Audio Codec Low Complexity
  64. Codec ID                    : A_AAC-2
  65. Duration                    : 3 h 2 min
  66. Bit rate                    : 83.5 kb/s
  67. Channel(s)                  : 2 channels
  68. Channel layout              : L R
  69. Sampling rate               : 48.0 kHz
  70. Frame rate                  : 46.875 FPS (1024 SPF)

This paste is large and only partially shown.
View full paste

View raw paste Reply