Author: Not specified Language: text
Description: (v2) Timestamp: 2018-04-10 20:25:57 +0000
View raw paste Parent paste by: Not specified Reply
  1. General
  2. Source                      : Murder.On.The.Orient.Express.2017.1080p.BluRay.REMUX.AVC.DTS-HD.MA.7.1-EPSiLON
  3. Complete name               : D:\Murder.On.The.Orient.Express.2017.1080p.BluRay.x264.DD5.1-Pahe.in.mkv
  4. Format                      : Matroska
  5. Format version              : Version 4 / Version 2
  6. File size                   : 2.07 GiB
  7. Duration                    : 1 h 53 min
  8. Overall bit rate            : 2 599 kb/s
  9. Movie name                  : Murder on the Orient Express (2017)
  10. Encoded date                : UTC 2018-02-12 08:03:16
  11. Writing application         : mkvmerge v13.0.0 ('The Juggler') 64bit
  12. Writing library             : libebml v1.3.4 + libmatroska v1.4.5
  13. Cover                       : Yes
  14. Attachments                 : cover.jpg
  15. Encoded by                  : Pahe.inā?¢ Team
  16.  
  17. Video
  18. ID                          : 1
  19. Format                      : AVC
  20. Format/Info                 : Advanced Video Codec
  21. Format profile              : High@L4.1
  22. Format settings             : CABAC / 5 Ref Frames
  23. Format settings, CABAC      : Yes
  24. Format settings, ReFrames   : 5 frames
  25. Codec ID                    : V_MPEG4/ISO/AVC
  26. Duration                    : 1 h 53 min
  27. Bit rate                    : 2 187 kb/s
  28. Width                       : 1 920 pixels
  29. Height                      : 804 pixels
  30. Display aspect ratio        : 2.40:1
  31. Frame rate mode             : Constant
  32. Frame rate                  : 23.976 (24000/1001) FPS
  33. Color space                 : YUV
  34. Chroma subsampling          : 4:2:0
  35. Bit depth                   : 8 bits
  36. Scan type                   : Progressive
  37. Bits/(Pixel*Frame)          : 0.059
  38. Stream size                 : 1.74 GiB (84%)
  39. Writing library             : x264 core 152 r2851 ba24899
  40. Encoding settings           : cabac=1 / ref=5 / deblock=1:-3:-3 / analyse=0x3:0x133 / me=umh / subme=10 / psy=1 / psy_rd=1.00:0.15 / mixed_ref=1 / me_range=32 / chroma_me=1 / trellis=2 / 8x8dct=1 / cqm=0 / deadzone=21,11 / fast_pskip=0 / chroma_qp_offset=-3 / threads=18 / lookahead_threads=3 / sliced_threads=0 / nr=0 / decimate=0 / interlaced=0 / bluray_compat=0 / constrained_intra=0 / bframes=8 / b_pyramid=2 / b_adapt=2 / b_bias=0 / direct=3 / weightb=1 / open_gop=0 / weightp=2 / keyint=250 / keyint_min=23 / scenecut=40 / intra_refresh=0 / rc_lookahead=60 / rc=crf / mbtree=0 / crf=24.1 / qcomp=0.70 / qpmin=0 / qpmax=69 / qpstep=4 / vbv_maxrate=45800 / vbv_bufsize=36000 / crf_max=0.0 / nal_hrd=none / filler=0 / ip_ratio=1.30 / pb_ratio=1.20 / aq=3:0.80
  41. Default                     : Yes
  42. Forced                      : No
  43.  
  44. Audio
  45. ID                          : 2
  46. Format                      : AC-3
  47. Format/Info                 : Audio Coding 3
  48. Codec ID                    : A_AC3
  49. Duration                    : 1 h 53 min
  50. Bit rate mode               : Constant
  51. Bit rate                    : 384 kb/s
  52. Channel(s)                  : 6 channels
  53. Channel positions           : Front: L C R, Side: L R, LFE
  54. Sampling rate               : 48.0 kHz
  55. Frame rate                  : 31.250 FPS (1536 SPF)
  56. Bit depth                   : 16 bits
  57. Compression mode            : Lossy
  58. Stream size                 : 313 MiB (15%)
  59. Language                    : English
  60. Service kind                : Complete Main
  61. Default                     : No
  62. Forced                      : No
  63.  
  64. Text #1
  65. ID                          : 3
  66. Format                      : PGS
  67. Muxing mode                 : zlib
  68. Codec ID                    : S_HDMV/PGS
  69. Codec ID/Info               : Picture based subtitle format used on BDs/HD-DVDs
  70. Duration                    : 1 h 45 min
  71. Bit rate                    : 51.1 kb/s
  72. Count of elements           : 3958
  73. Stream size                 : 38.7 MiB (2%)
  74. Language                    : English
  75. Default                     : No
  76. Forced                      : No
  77.  
  78. Text #2
  79. ID                          : 4
  80. Format                      : PGS
  81. Muxing mode                 : zlib
  82. Codec ID                    : S_HDMV/PGS
  83. Codec ID/Info               : Picture based subtitle format used on BDs/HD-DVDs
  84. Duration                    : 1 h 52 min
  85. Bit rate                    : 42.9 kb/s
  86. Count of elements           : 3138
  87. Stream size                 : 34.6 MiB (2%)
  88. Language                    : Indonesian
  89. Default                     : Yes
  90. Forced                      : No
  91.  
  92. Menu
  93. 00:00:00.000                : en:Chapter 1
  94. 00:03:06.144                : en:Chapter 2
  95. 00:06:42.193                : en:Chapter 3
  96. 00:11:44.746                : en:Chapter 4
  97. 00:18:26.188                : en:Chapter 5
  98. 00:24:53.659                : en:Chapter 6
  99. 00:33:14.159                : en:Chapter 7
  100. 00:37:47.515                : en:Chapter 8
  101. 00:43:16.511                : en:Chapter 9
  102. 00:46:24.865                : en:Chapter 10
  103. 00:51:23.580                : en:Chapter 11
  104. 00:55:52.015                : en:Chapter 12
  105. 01:00:03.183                : en:Chapter 13
  106. 01:05:39.227                : en:Chapter 14
  107. 01:10:40.153                : en:Chapter 15
  108. 01:14:17.578                : en:Chapter 16
  109. 01:18:05.055                : en:Chapter 17

This paste is large and only partially shown.
View full paste

View raw paste Parent paste by: Not specified Reply