Author: Not specified Language: text
Description: Not specified Timestamp: 2018-12-06 13:53:31 +0000
View raw paste Child paste by: Not specified Reply
  1. General
  2. Unique ID                   : 227258070548502753397639009138561702476 (0xAAF84FF406D9AF82D94EE4B748E6DA4C)
  3. Complete name               : E:\Venom.2018.ReRip.1080p.BluRay.x264.DD5.1-Pahe.in.mkv
  4. Format                      : Matroska
  5. Format version              : Version 4 / Version 2
  6. File size                   : 2.48 GiB
  7. Duration                    : 1 h 52 min
  8. Overall bit rate            : 3 170 kb/s
  9. Movie name                  : Venom 2018 ~ Pahe.in
  10. Encoded date                : UTC 2018-12-06 13:13:11
  11. Writing application         : mkvmerge v24.0.0 ('Beyond The Pale') 64-bit
  12. Writing library             : libebml v1.3.6 + libmatroska v1.4.9
  13. Cover                       : Yes
  14. Attachments                 : cover.jpg
  15. Encoded by                  : ≧Pahe.in Team≦
  16.  
  17. Video
  18. ID                          : 1
  19. Format                      : AVC
  20. Format/Info                 : Advanced Video Codec
  21. Format profile              : High@L4.1
  22. Format settings             : CABAC / 5 Ref Frames
  23. Format settings, CABAC      : Yes
  24. Format settings, ReFrames   : 5 frames
  25. Codec ID                    : V_MPEG4/ISO/AVC
  26. Duration                    : 1 h 52 min
  27. Bit rate                    : 2 768 kb/s
  28. Width                       : 1 920 pixels
  29. Height                      : 800 pixels
  30. Display aspect ratio        : 2.40:1
  31. Frame rate mode             : Constant
  32. Frame rate                  : 23.976 (24000/1001) FPS
  33. Color space                 : YUV
  34. Chroma subsampling          : 4:2:0
  35. Bit depth                   : 8 bits
  36. Scan type                   : Progressive
  37. Bits/(Pixel*Frame)          : 0.075
  38. Stream size                 : 2.17 GiB (87%)
  39. Writing library             : x264 core 155 r2901 7d0ff22
  40. Encoding settings           : cabac=1 / ref=5 / deblock=1:-3:-3 / analyse=0x3:0x133 / me=umh / subme=10 / psy=1 / psy_rd=1.00:0.15 / mixed_ref=1 / me_range=48 / chroma_me=1 / trellis=2 / 8x8dct=1 / cqm=0 / deadzone=21,11 / fast_pskip=0 / chroma_qp_offset=-3 / threads=24 / lookahead_threads=4 / sliced_threads=0 / nr=0 / decimate=0 / interlaced=0 / bluray_compat=0 / constrained_intra=0 / bframes=8 / b_pyramid=2 / b_adapt=2 / b_bias=0 / direct=3 / weightb=1 / open_gop=0 / weightp=2 / keyint=250 / keyint_min=23 / scenecut=40 / intra_refresh=0 / rc_lookahead=60 / rc=crf / mbtree=0 / crf=23.9 / qcomp=0.60 / qpmin=0 / qpmax=69 / qpstep=4 / vbv_maxrate=33500 / vbv_bufsize=30000 / crf_max=0.0 / nal_hrd=none / filler=0 / ip_ratio=1.30 / pb_ratio=1.20 / aq=3:0.80
  41. Default                     : Yes
  42. Forced                      : No
  43.  
  44. Audio
  45. ID                          : 2
  46. Format                      : AC-3
  47. Format/Info                 : Audio Coding 3
  48. Commercial name             : Dolby Digital
  49. Codec ID                    : A_AC3
  50. Duration                    : 1 h 52 min
  51. Bit rate mode               : Constant
  52. Bit rate                    : 384 kb/s
  53. Channel(s)                  : 6 channels
  54. Channel layout              : L R C LFE Ls Rs
  55. Sampling rate               : 48.0 kHz
  56. Frame rate                  : 31.250 FPS (1536 SPF)
  57. Bit depth                   : 16 bits
  58. Compression mode            : Lossy
  59. Stream size                 : 308 MiB (12%)
  60. Language                    : English
  61. Service kind                : Complete Main
  62. Default                     : No
  63. Forced                      : No
  64.  
  65. Text
  66. ID                          : 3
  67. Format                      : PGS
  68. Muxing mode                 : zlib
  69. Codec ID                    : S_HDMV/PGS
  70. Codec ID/Info               : Picture based subtitle format used on BDs/HD-DVDs
  71. Duration                    : 1 h 49 min
  72. Bit rate                    : 32.7 kb/s
  73. Count of elements           : 2707
  74. Stream size                 : 25.5 MiB (1%)
  75. Language                    : English
  76. Default                     : Yes
  77. Forced                      : No
  78.  
  79. Menu
  80. 00:00:00.000                : en:00:00:00.000
  81. 00:04:43.200                : en:00:04:43.200
  82. 00:10:58.074                : en:00:10:58.074
  83. 00:17:34.929                : en:00:17:34.929
  84. 00:24:05.486                : en:00:24:05.486
  85. 00:32:18.812                : en:00:32:18.812
  86. 00:40:07.447                : en:00:40:07.447
  87. 00:46:51.976                : en:00:46:51.976
  88. 00:53:26.203                : en:00:53:26.203
  89. 01:00:57.070                : en:01:00:57.070
  90. 01:04:01.796                : en:01:04:01.796
  91. 01:08:36.446                : en:01:08:36.446
  92. 01:11:12.852                : en:01:11:12.852
  93. 01:14:15.743                : en:01:14:15.743
  94. 01:21:18.749                : en:01:21:18.749
  95. 01:27:15.021                : en:01:27:15.021
  96.  
  97.  
View raw paste Child paste by: Not specified Reply