Author: Not specified Language: text
Description: Not specified Timestamp: 2019-10-20 12:44:08 +0000
View raw paste Reply
  1. General
  2. Unique ID                   : 285056849144659816661877317728801700626 (0xD673F3C0E42BB5CD7E252F3E8294BB12)
  3. Complete name               : E:\Adit\American.Gangster.2007.EXTENDED.1080p.UHD.BluRay.x264.DD5.1-Pahe.in.mkv
  4. Format                      : Matroska
  5. Format version              : Version 4
  6. File size                   : 3.62 GiB
  7. Duration                    : 2 h 55 min
  8. Overall bit rate            : 2 945 kb/s
  9. Movie name                  : American Gangster (2007) EXTENDED from 4K BluRay - Pahe.in
  10. Encoded date                : UTC 2019-10-17 09:33:20
  11. Writing application         : mkvmerge v24.0.0 ('Beyond The Pale') 64-bit
  12. Writing library             : libebml v1.3.6 + libmatroska v1.4.9
  13. Cover                       : Yes
  14. Attachments                 : cover.jpg
  15. Encoded by                  : Pahe.in™ Team
  16.  
  17. Video
  18. ID                          : 1
  19. Format                      : AVC
  20. Format/Info                 : Advanced Video Codec
  21. Format profile              : High@L4.1
  22. Format settings             : CABAC / 4 Ref Frames
  23. Format settings, CABAC      : Yes
  24. Format settings, Reference  : 4 frames
  25. Codec ID                    : V_MPEG4/ISO/AVC
  26. Duration                    : 2 h 55 min
  27. Bit rate                    : 2 547 kb/s
  28. Width                       : 1 920 pixels
  29. Height                      : 1 038 pixels
  30. Display aspect ratio        : 1.85:1
  31. Frame rate mode             : Constant
  32. Frame rate                  : 23.976 (24000/1001) FPS
  33. Color space                 : YUV
  34. Chroma subsampling          : 4:2:0
  35. Bit depth                   : 8 bits
  36. Scan type                   : Progressive
  37. Bits/(Pixel*Frame)          : 0.053
  38. Stream size                 : 3.13 GiB (86%)
  39. Writing library             : x264 core 155 r2901 7d0ff22
  40. Encoding settings           : cabac=1 / ref=4 / deblock=1:-3:-3 / analyse=0x3:0x133 / me=umh / subme=10 / psy=1 / psy_rd=1.00:0.15 / mixed_ref=1 / me_range=48 / chroma_me=1 / trellis=2 / 8x8dct=1 / cqm=0 / deadzone=21,11 / fast_pskip=0 / chroma_qp_offset=-3 / threads=18 / lookahead_threads=3 / sliced_threads=0 / nr=0 / decimate=0 / interlaced=0 / bluray_compat=0 / constrained_intra=0 / bframes=8 / b_pyramid=2 / b_adapt=2 / b_bias=0 / direct=3 / weightb=1 / open_gop=0 / weightp=2 / keyint=250 / keyint_min=23 / scenecut=40 / intra_refresh=0 / rc_lookahead=60 / rc=crf / mbtree=0 / crf=26.6 / qcomp=0.60 / qpmin=0 / qpmax=69 / qpstep=4 / vbv_maxrate=33500 / vbv_bufsize=30000 / crf_max=0.0 / nal_hrd=none / filler=0 / ip_ratio=1.30 / pb_ratio=1.20 / aq=3:0.80
  41. Default                     : Yes
  42. Forced                      : No
  43.  
  44. Audio
  45. ID                          : 2
  46. Format                      : AC-3
  47. Format/Info                 : Audio Coding 3
  48. Commercial name             : Dolby Digital
  49. Codec ID                    : A_AC3
  50. Duration                    : 2 h 55 min
  51. Bit rate mode               : Constant
  52. Bit rate                    : 384 kb/s
  53. Channel(s)                  : 6 channels
  54. Channel layout              : L R C LFE Ls Rs
  55. Sampling rate               : 48.0 kHz
  56. Frame rate                  : 31.250 FPS (1536 SPF)
  57. Bit depth                   : 16 bits
  58. Compression mode            : Lossy
  59. Stream size                 : 483 MiB (13%)
  60. Language                    : English
  61. Service kind                : Complete Main
  62. Default                     : No
  63. Forced                      : No
  64.  
  65. Text #1
  66. ID                          : 3
  67. Format                      : UTF-8
  68. Codec ID                    : S_TEXT/UTF8
  69. Codec ID/Info               : UTF-8 Plain Text
  70. Duration                    : 2 h 46 min
  71. Bit rate                    : 69 b/s
  72. Count of elements           : 2627
  73. Stream size                 : 84.0 KiB (0%)
  74. Language                    : English
  75. Default                     : No
  76. Forced                      : No
  77.  
  78. Text #2
  79. ID                          : 4
  80. Format                      : PGS
  81. Muxing mode                 : zlib
  82. Codec ID                    : S_HDMV/PGS
  83. Codec ID/Info               : Picture based subtitle format used on BDs/HD-DVDs
  84. Duration                    : 2 h 47 min
  85. Bit rate                    : 41.2 kb/s
  86. Count of elements           : 5600
  87. Stream size                 : 49.4 MiB (1%)
  88. Language                    : English
  89. Default                     : Yes
  90. Forced                      : No
  91.  
  92. Menu
  93. 00:00:00.000                : en:Chapter 01
  94. 00:06:48.449                : en:Chapter 02
  95. 00:14:07.263                : en:Chapter 03
  96. 00:25:42.707                : en:Chapter 04
  97. 00:32:19.938                : en:Chapter 05
  98. 00:37:33.584                : en:Chapter 06
  99. 00:43:48.876                : en:Chapter 07
  100. 00:51:25.457                : en:Chapter 08
  101. 00:57:21.521                : en:Chapter 09
  102. 01:15:30.651                : en:Chapter 10
  103. 01:20:53.181                : en:Chapter 11
  104. 01:29:01.252                : en:Chapter 12
  105. 01:37:22.169                : en:Chapter 13
  106. 01:44:01.610                : en:Chapter 14
  107. 01:55:33.885                : en:Chapter 15
  108. 02:04:59.116                : en:Chapter 16
  109. 02:13:00.639                : en:Chapter 17

This paste is large and only partially shown.
View full paste

View raw paste Reply