Slexy.org is shutting down and stopped accepting new Pastes on May 4th, 2021.
Existing Pastes will stop being available on or after May 10th, 2021.
Author: nvtuan86 Language: text
Description: Not specified Timestamp: 2017-08-16 10:40:21 +0000
View raw paste Reply
  1. General
  2. Unique ID                                : 213211124614953244672574824636518176666 (0xA066F80C4564F118A2EC79DB7BCF179A)
  3. Complete name                            : D:\VietHD\Bon.Voyage.2003.1080p.BluRay.DD5.1.x264-VietHD\Bon.Voyage.2003.1080p.BluRay.DD5.1.x264-VietHD.mkv
  4. Format                                   : Matroska
  5. Format version                           : Version 4 / Version 2
  6. File size                                : 12.3 GiB
  7. Duration                                 : 1h 54mn
  8. Overall bit rate                         : 15.4 Mbps
  9. Encoded date                             : UTC 2017-08-16 10:10:37
  10. Writing application                      : mkvmerge v14.0.0 ('Flow') 64bit
  11. Writing library                          : libebml v1.3.4 + libmatroska v1.4.5
  12.  
  13. Video
  14. ID                                       : 4
  15. Format                                   : AVC
  16. Format/Info                              : Advanced Video Codec
  17. Format profile                           : High@L4.1
  18. Format settings, CABAC                   : Yes
  19. Format settings, ReFrames                : 5 frames
  20. Codec ID                                 : V_MPEG4/ISO/AVC
  21. Duration                                 : 1h 54mn
  22. Bit rate                                 : 14.7 Mbps
  23. Width                                    : 1 920 pixels
  24. Height                                   : 804 pixels
  25. Display aspect ratio                     : 2.40:1
  26. Frame rate mode                          : Constant
  27. Frame rate                               : 24.000 fps
  28. Color space                              : YUV
  29. Chroma subsampling                       : 4:2:0
  30. Bit depth                                : 8 bits
  31. Scan type                                : Progressive
  32. Bits/(Pixel*Frame)                       : 0.397
  33. Stream size                              : 11.8 GiB (96%)
  34. Writing library                          : x264 core 150 r2833+21 82447f2 VietHD_Custom
  35. Encoding settings                        : cabac=1 / ref=5 / deblock=1:-3:-3 / analyse=0x3:0x133 / me=umh / subme=10 / psy=1 / fade_compensate=0.00 / psy_rd=1.00:0.00 / mixed_ref=1 / me_range=24 / chroma_me=1 / trellis=2 / 8x8dct=1 / cqm=0 / deadzone=21,11 / fast_pskip=0 / chroma_qp_offset=-2 / threads=12 / lookahead_threads=2 / sliced_threads=0 / nr=0 / decimate=0 / interlaced=0 / bluray_compat=0 / constrained_intra=0 / fgo=0 / bframes=8 / b_pyramid=2 / b_adapt=2 / b_bias=0 / direct=3 / weightb=1 / open_gop=0 / weightp=2 / keyint=250 / keyint_min=24 / scenecut=40 / intra_refresh=0 / rc_lookahead=60 / rc=crf / mbtree=0 / crf=17.0000 / qcomp=0.70 / qpmin=0:0:0 / qpmax=69:69:69 / qpstep=4 / vbv_maxrate=62500 / vbv_bufsize=78125 / crf_max=0.0 / nal_hrd=none / filler=0 / ip_ratio=1.30 / pb_ratio=1.20 / aq=3:0.60 / aq-sensitivity=10.00 / aq-factor=1.00:1.00:1.00 / aq2=0 / aq3=0
  36. Language                                 : French
  37. Default                                  : Yes
  38. Forced                                   : No
  39. Color range                              : Limited
  40. Matrix coefficients                      : BT.709
  41.  
  42. Audio
  43. ID                                       : 1
  44. Format                                   : AC-3
  45. Format/Info                              : Audio Coding 3
  46. Mode extension                           : CM (complete main)
  47. Format settings, Endianness              : Big
  48. Codec ID                                 : A_AC3
  49. Duration                                 : 1h 54mn
  50. Bit rate mode                            : Constant
  51. Bit rate                                 : 640 Kbps
  52. Channel(s)                               : 6 channels
  53. Channel positions                        : Front: L C R, Side: L R, LFE
  54. Sampling rate                            : 48.0 KHz
  55. Frame rate                               : 31.250 fps (1536 spf)
  56. Compression mode                         : Lossy
  57. Stream size                              : 526 MiB (4%)
  58. Language                                 : French
  59. Default                                  : Yes
  60. Forced                                   : No
  61.  
  62. Text #1
  63. ID                                       : 2
  64. Format                                   : UTF-8
  65. Codec ID                                 : S_TEXT/UTF8
  66. Codec ID/Info                            : UTF-8 Plain Text
  67. Duration                                 : 1h 54mn
  68. Bit rate                                 : 52 bps
  69. Count of elements                        : 1432
  70. Stream size                              : 43.8 KiB (0%)
  71. Language                                 : French
  72. Default                                  : No
  73. Forced                                   : No
  74.  
  75. Text #2
  76. ID                                       : 3
  77. Format                                   : UTF-8
  78. Codec ID                                 : S_TEXT/UTF8
  79. Codec ID/Info                            : UTF-8 Plain Text
  80. Duration                                 : 1h 52mn
  81. Bit rate                                 : 39 bps
  82. Count of elements                        : 1243
  83. Stream size                              : 32.3 KiB (0%)
  84. Language                                 : English

This paste is large and only partially shown.
View full paste

View raw paste Reply