Author: Not specified Language: text
Description: Not specified Timestamp: 2019-11-11 07:37:06 +0000
View raw paste Reply
  1. General
  2. Unique ID                   : 58187239161855341979245373304873427940 (0x2BC67462854105BCF8BFA2E58FE423E4)
  3. Complete name               : E:\2020\Dora and the Lost City of Gold 2019 1080p BluRay x264 DD5.1-Pahe.in.mkv
  4. Format                      : Matroska
  5. Format version              : Version 4 / Version 2
  6. File size                   : 2.29 GiB
  7. Duration                    : 1 h 42 min
  8. Overall bit rate            : 3 206 kb/s
  9. Encoded date                : UTC 2019-11-11 06:05:51
  10. Writing application         : mkvmerge v24.0.0 ('Beyond The Pale') 64-bit
  11. Writing library             : libebml v1.3.6 + libmatroska v1.4.9
  12. Cover                       : Yes
  13. Attachments                 : cover.jpg
  14. Encoded by                  : Pahe.in™ Team
  15.  
  16. Video
  17. ID                          : 1
  18. Format                      : AVC
  19. Format/Info                 : Advanced Video Codec
  20. Format profile              : High@L4.1
  21. Format settings             : CABAC / 4 Ref Frames
  22. Format settings, CABAC      : Yes
  23. Format settings, ReFrames   : 4 frames
  24. Codec ID                    : V_MPEG4/ISO/AVC
  25. Duration                    : 1 h 42 min
  26. Bit rate                    : 2 798 kb/s
  27. Width                       : 1 920 pixels
  28. Height                      : 1 080 pixels
  29. Display aspect ratio        : 16:9
  30. Frame rate mode             : Constant
  31. Frame rate                  : 23.976 (24000/1001) FPS
  32. Color space                 : YUV
  33. Chroma subsampling          : 4:2:0
  34. Bit depth                   : 8 bits
  35. Scan type                   : Progressive
  36. Bits/(Pixel*Frame)          : 0.056
  37. Stream size                 : 2.00 GiB (87%)
  38. Writing library             : x264 core 155 r2901 7d0ff22
  39. Encoding settings           : cabac=1 / ref=4 / deblock=1:-3:-3 / analyse=0x3:0x133 / me=umh / subme=10 / psy=1 / psy_rd=1.00:0.15 / mixed_ref=1 / me_range=48 / chroma_me=1 / trellis=2 / 8x8dct=1 / cqm=0 / deadzone=21,11 / fast_pskip=0 / chroma_qp_offset=-3 / threads=18 / lookahead_threads=3 / sliced_threads=0 / nr=0 / decimate=0 / interlaced=0 / bluray_compat=0 / constrained_intra=0 / bframes=8 / b_pyramid=2 / b_adapt=2 / b_bias=0 / direct=3 / weightb=1 / open_gop=0 / weightp=2 / keyint=250 / keyint_min=23 / scenecut=40 / intra_refresh=0 / rc_lookahead=60 / rc=crf / mbtree=0 / crf=25.5 / qcomp=0.60 / qpmin=0 / qpmax=69 / qpstep=4 / vbv_maxrate=33500 / vbv_bufsize=30000 / crf_max=0.0 / nal_hrd=none / filler=0 / ip_ratio=1.30 / pb_ratio=1.20 / aq=3:0.80
  40. Default                     : Yes
  41. Forced                      : No
  42.  
  43. Audio
  44. ID                          : 2
  45. Format                      : AC-3
  46. Format/Info                 : Audio Coding 3
  47. Commercial name             : Dolby Digital
  48. Codec ID                    : A_AC3
  49. Duration                    : 1 h 42 min
  50. Bit rate mode               : Constant
  51. Bit rate                    : 384 kb/s
  52. Channel(s)                  : 6 channels
  53. Channel layout              : L R C LFE Ls Rs
  54. Sampling rate               : 48.0 kHz
  55. Frame rate                  : 31.250 FPS (1536 SPF)
  56. Bit depth                   : 16 bits
  57. Compression mode            : Lossy
  58. Stream size                 : 281 MiB (12%)
  59. Language                    : English
  60. Service kind                : Complete Main
  61. Default                     : No
  62. Forced                      : No
  63.  
  64. Text #1
  65. ID                          : 3
  66. Format                      : PGS
  67. Muxing mode                 : zlib
  68. Codec ID                    : S_HDMV/PGS
  69. Codec ID/Info               : Picture based subtitle format used on BDs/HD-DVDs
  70. Duration                    : 1 h 37 min
  71. Bit rate                    : 42.9 kb/s
  72. Count of elements           : 2800
  73. Stream size                 : 29.8 MiB (1%)
  74. Language                    : English
  75. Default                     : No
  76. Forced                      : No
  77.  
  78. Text #2
  79. ID                          : 4
  80. Format                      : UTF-8
  81. Codec ID                    : S_TEXT/UTF8
  82. Codec ID/Info               : UTF-8 Plain Text
  83. Duration                    : 1 h 37 min
  84. Bit rate                    : 59 b/s
  85. Count of elements           : 1399
  86. Stream size                 : 42.6 KiB (0%)
  87. Language                    : English
  88. Default                     : No
  89. Forced                      : No
  90.  
  91. Menu
  92. 00:00:00.000                : :Chapter 01
  93. 00:04:52.417                : :Chapter 02
  94. 00:09:49.088                : :Chapter 03
  95. 00:15:35.643                : :Chapter 04
  96. 00:20:26.767                : :Chapter 05
  97. 00:25:47.838                : :Chapter 06
  98. 00:35:15.780                : :Chapter 07
  99. 00:42:53.738                : :Chapter 08
  100. 00:47:13.664                : :Chapter 09
  101. 00:52:57.883                : :Chapter 10
  102. 00:55:41.463                : :Chapter 11
  103. 01:01:02.659                : :Chapter 12
  104. 01:06:11.301                : :Chapter 13
  105. 01:10:23.136                : :Chapter 14
  106. 01:13:52.136                : :Chapter 15
  107. 01:18:26.327                : :Chapter 16
  108. 01:22:39.496                : :Chapter 17
  109. 01:32:57.322                : :Chapter 18
  110. 01:38:30.238                : :Chapter 19
  111.  
  112.  
View raw paste Reply