Author: Not specified Language: text
Description: Not specified Timestamp: 2019-09-14 06:28:13 +0000
View raw paste Reply
  1. General
  2. Unique ID                   : 129024643063198189845805444230323995027 (0x61113E0B8FFC081E08FD2F7DD20D8193)
  3. Complete name               : E:\Adit\The.Worlds.End.2013.1080p.UHD.BluRay.x264.DD5.1-Pahe.in.mkv
  4. Format                      : Matroska
  5. Format version              : Version 4
  6. File size                   : 2.04 GiB
  7. Duration                    : 1 h 49 min
  8. Overall bit rate            : 2 681 kb/s
  9. Encoded date                : UTC 2019-09-10 23:58:28
  10. Writing application         : mkvmerge v24.0.0 ('Beyond The Pale') 64-bit
  11. Writing library             : libebml v1.3.6 + libmatroska v1.4.9
  12. Cover                       : Yes
  13. Attachments                 : cover.jpg
  14. Encoded by                  : Pahe.in™ Team
  15.  
  16. Video
  17. ID                          : 1
  18. Format                      : AVC
  19. Format/Info                 : Advanced Video Codec
  20. Format profile              : High@L4.1
  21. Format settings             : CABAC / 5 Ref Frames
  22. Format settings, CABAC      : Yes
  23. Format settings, Reference  : 5 frames
  24. Codec ID                    : V_MPEG4/ISO/AVC
  25. Duration                    : 1 h 49 min
  26. Bit rate                    : 2 278 kb/s
  27. Width                       : 1 920 pixels
  28. Height                      : 816 pixels
  29. Display aspect ratio        : 2.35:1
  30. Frame rate mode             : Constant
  31. Frame rate                  : 23.976 (24000/1001) FPS
  32. Color space                 : YUV
  33. Chroma subsampling          : 4:2:0
  34. Bit depth                   : 8 bits
  35. Scan type                   : Progressive
  36. Bits/(Pixel*Frame)          : 0.061
  37. Stream size                 : 1.74 GiB (85%)
  38. Writing library             : x264 core 155 r2901 7d0ff22
  39. Encoding settings           : cabac=1 / ref=5 / deblock=1:-3:-3 / analyse=0x3:0x133 / me=umh / subme=10 / psy=1 / psy_rd=1.00:0.15 / mixed_ref=1 / me_range=48 / chroma_me=1 / trellis=2 / 8x8dct=1 / cqm=0 / deadzone=21,11 / fast_pskip=0 / chroma_qp_offset=-3 / threads=18 / lookahead_threads=3 / sliced_threads=0 / nr=0 / decimate=0 / interlaced=0 / bluray_compat=0 / constrained_intra=0 / bframes=8 / b_pyramid=2 / b_adapt=2 / b_bias=0 / direct=3 / weightb=1 / open_gop=0 / weightp=2 / keyint=250 / keyint_min=23 / scenecut=40 / intra_refresh=0 / rc_lookahead=60 / rc=crf / mbtree=0 / crf=25.5 / qcomp=0.60 / qpmin=0 / qpmax=69 / qpstep=4 / vbv_maxrate=33500 / vbv_bufsize=30000 / crf_max=0.0 / nal_hrd=none / filler=0 / ip_ratio=1.30 / pb_ratio=1.20 / aq=3:0.80
  40. Default                     : Yes
  41. Forced                      : No
  42.  
  43. Audio
  44. ID                          : 2
  45. Format                      : AC-3
  46. Format/Info                 : Audio Coding 3
  47. Commercial name             : Dolby Digital
  48. Codec ID                    : A_AC3
  49. Duration                    : 1 h 49 min
  50. Bit rate mode               : Constant
  51. Bit rate                    : 384 kb/s
  52. Channel(s)                  : 6 channels
  53. Channel layout              : L R C LFE Ls Rs
  54. Sampling rate               : 48.0 kHz
  55. Frame rate                  : 31.250 FPS (1536 SPF)
  56. Bit depth                   : 16 bits
  57. Compression mode            : Lossy
  58. Stream size                 : 300 MiB (14%)
  59. Language                    : English
  60. Service kind                : Complete Main
  61. Default                     : No
  62. Forced                      : No
  63.  
  64. Text #1
  65. ID                          : 3
  66. Format                      : UTF-8
  67. Codec ID                    : S_TEXT/UTF8
  68. Codec ID/Info               : UTF-8 Plain Text
  69. Duration                    : 1 h 42 min
  70. Bit rate                    : 83 b/s
  71. Count of elements           : 1731
  72. Stream size                 : 62.7 KiB (0%)
  73. Language                    : English
  74. Default                     : No
  75. Forced                      : No
  76.  
  77. Text #2
  78. ID                          : 4
  79. Format                      : PGS
  80. Muxing mode                 : zlib
  81. Codec ID                    : S_HDMV/PGS
  82. Codec ID/Info               : Picture based subtitle format used on BDs/HD-DVDs
  83. Duration                    : 1 h 43 min
  84. Bit rate                    : 56.9 kb/s
  85. Count of elements           : 3726
  86. Stream size                 : 42.1 MiB (2%)
  87. Language                    : English
  88. Default                     : Yes
  89. Forced                      : No
  90.  
  91. Menu
  92. 00:00:00.000                : en:Chapter 1
  93. 00:05:38.964                : en:Chapter 2
  94. 00:10:33.675                : en:Chapter 3
  95. 00:15:35.434                : en:Chapter 4
  96. 00:19:57.363                : en:Chapter 5
  97. 00:25:24.648                : en:Chapter 6
  98. 00:30:07.848                : en:Chapter 7
  99. 00:36:10.418                : en:Chapter 8
  100. 00:42:40.933                : en:Chapter 9
  101. 00:46:17.900                : en:Chapter 10
  102. 00:50:20.684                : en:Chapter 11
  103. 00:57:21.396                : en:Chapter 12
  104. 01:02:29.871                : en:Chapter 13
  105. 01:06:31.404                : en:Chapter 14
  106. 01:12:17.792                : en:Chapter 15
  107. 01:18:37.671                : en:Chapter 16
  108. 01:23:51.860                : en:Chapter 17
  109. 01:26:46.451                : en:Chapter 18
  110. 01:35:17.420                : en:Chapter 19
  111. 01:42:20.885                : en:Chapter 20

This paste is large and only partially shown.
View full paste

View raw paste Reply