Author: Not specified Language: text
Description: Not specified Timestamp: 2013-06-13 12:17:11 +0000
View raw paste Reply
  1. C:\Users\Phoenix92\Desktop\ha (1).mkv
  2. Format                                   : Matroska
  3. Format version                           : Version 4 / Version 2
  4. File size                                : 2.36 GiB
  5. Duration                                 : 1h 42mn
  6. Overall bit rate                         : 3 287 Kbps
  7. Encoded date                             : UTC 2013-06-13 11:55:35
  8. Writing application                      : mkvmerge v6.2.0 ('Promised Land') built on Apr 28 2013 12:22:01
  9. Writing library                          : libebml v1.3.0 + libmatroska v1.4.0
  10.  
  11. Video
  12. ID                                       : 1
  13. Format                                   : AVC
  14. Format/Info                              : Advanced Video Codec
  15. Format profile                           : High@L4.1
  16. Format settings, CABAC                   : Yes
  17. Format settings, ReFrames                : 9 frames
  18. Codec ID                                 : V_MPEG4/ISO/AVC
  19. Duration                                 : 1h 42mn
  20. Bit rate                                 : 2 581 Kbps
  21. Width                                    : 1 280 pixels
  22. Height                                   : 694 pixels
  23. Display aspect ratio                     : 1.85:1
  24. Frame rate mode                          : Constant
  25. Frame rate                               : 23.976 fps
  26. Color space                              : YUV
  27. Chroma subsampling                       : 4:2:0
  28. Bit depth                                : 8 bits
  29. Scan type                                : Progressive
  30. Bits/(Pixel*Frame)                       : 0.121
  31. Stream size                              : 1.86 GiB (79%)
  32. Writing library                          : x264 core 133 r2334 a3ac64b
  33. Encoding settings                        : cabac=1 / ref=9 / deblock=1:-3:-3 / analyse=0x3:0x113 / me=esa / subme=10 / psy=1 / psy_rd=1.05:0.00 / mixed_ref=1 / me_range=24 / chroma_me=1 / trellis=2 / 8x8dct=1 / cqm=0 / deadzone=21,11 / fast_pskip=0 / chroma_qp_offset=-2 / threads=12 / lookahead_threads=2 / sliced_threads=0 / nr=0 / decimate=0 / interlaced=0 / bluray_compat=0 / constrained_intra=0 / bframes=7 / b_pyramid=2 / b_adapt=2 / b_bias=0 / direct=3 / weightb=1 / open_gop=0 / weightp=2 / keyint=250 / keyint_min=23 / scenecut=40 / intra_refresh=0 / rc=crf / mbtree=0 / crf=20.0 / qcomp=0.60 / qpmin=0 / qpmax=69 / qpstep=4 / ip_ratio=1.40 / pb_ratio=1.30 / aq=1:0.80
  34. Default                                  : Yes
  35. Forced                                   : No
  36.  
  37. Audio
  38. ID                                       : 3
  39. Format                                   : AC-3
  40. Format/Info                              : Audio Coding 3
  41. Mode extension                           : CM (complete main)
  42. Format settings, Endianness              : Big
  43. Codec ID                                 : A_AC3
  44. Duration                                 : 1h 42mn
  45. Bit rate mode                            : Constant
  46. Bit rate                                 : 640 Kbps
  47. Channel(s)                               : 6 channels
  48. Channel positions                        : Front: L C R, Side: L R, LFE
  49. Sampling rate                            : 48.0 KHz
  50. Bit depth                                : 16 bits
  51. Compression mode                         : Lossy
  52. Stream size                              : 471 MiB (19%)
  53. Default                                  : Yes
  54. Forced                                   : No
  55.  
  56. Text
  57. ID                                       : 2
  58. Format                                   : UTF-8
  59. Codec ID                                 : S_TEXT/UTF8
  60. Codec ID/Info                            : UTF-8 Plain Text
  61. Title                                    : English
  62. Language                                 : English
  63. Default                                  : No
  64. Forced                                   : No
  65.  
  66. Menu
  67. 00:00:00.000                             : en:Chapter 00
  68. 00:03:47.060                             : en:Chapter 01
  69. 00:05:46.679                             : en:Chapter 02
  70. 00:08:49.278                             : en:Chapter 03
  71. 00:11:28.729                             : en:Chapter 04
  72. 00:13:43.239                             : en:Chapter 05
  73. 00:19:27.457                             : en:Chapter 06
  74. 00:25:08.173                             : en:Chapter 07
  75. 00:31:16.040                             : en:Chapter 08
  76. 00:35:56.654                             : en:Chapter 09
  77. 00:41:09.550                             : en:Chapter 10
  78. 00:51:22.662                             : en:Chapter 11
  79. 00:57:38.580                             : en:Chapter 12
  80. 01:03:27.637                             : en:Chapter 13
  81. 01:06:33.656                             : en:Chapter 14
  82. 01:13:43.836                             : en:Chapter 15
  83. 01:15:13.217                             : en:Chapter 16
  84. 01:19:27.053                             : en:Chapter 17
  85. 01:22:51.341                             : en:Chapter 18
  86. 01:26:00.071                             : en:Chapter 19
  87. 01:28:45.069                             : en:Chapter 20
  88. 01:33:32.231                             : en:Chapter 21

This paste is large and only partially shown.
View full paste

View raw paste Reply