Author: Not specified Language: text
Description: Not specified Timestamp: 2017-12-02 04:21:27 +0000
View raw paste Reply
  1. General
  2. Source                      : American.Assassin.2017.1080p.BluRay.REMUX.AVC.DTS-HD.MA.TrueHD.7.1.Atmos-FGT
  3. Format                      : Matroska
  4. Format version              : Version 4 / Version 2
  5. File size                   : 2.07 GiB
  6. Duration                    : 1 h 51 min
  7. Overall bit rate            : 2 660 kb/s
  8. Movie name                  : American Assassin 2017 [Pahe.in] 1080p
  9. Encoded date                : UTC 2017-12-01 04:43:53
  10. Writing application         : mkvmerge v13.0.0 ('The Juggler') 64bit
  11. Writing library             : libebml v1.3.4 + libmatroska v1.4.5
  12. Cover                       : Yes
  13. Attachments                 : cover.jpg
  14. Encoded by                  : Pahe.in™ Team
  15.  
  16. Video
  17. ID                          : 1
  18. Format                      : AVC
  19. Format/Info                 : Advanced Video Codec
  20. Format profile              : High@L4.1
  21. Format settings             : CABAC / 5 Ref Frames
  22. Format settings, CABAC      : Yes
  23. Format settings, RefFrames  : 5 frames
  24. Codec ID                    : V_MPEG4/ISO/AVC
  25. Duration                    : 1 h 51 min
  26. Bit rate                    : 2 262 kb/s
  27. Width                       : 1 920 pixels
  28. Height                      : 804 pixels
  29. Display aspect ratio        : 2.40:1
  30. Frame rate mode             : Constant
  31. Frame rate                  : 23.976 (24000/1001) FPS
  32. Color space                 : YUV
  33. Chroma subsampling          : 4:2:0
  34. Bit depth                   : 8 bits
  35. Scan type                   : Progressive
  36. Bits/(Pixel*Frame)          : 0.061
  37. Stream size                 : 1.76 GiB (85%)
  38. Writing library             : x264 core 152 r2851 ba24899
  39. Encoding settings           : cabac=1 / ref=5 / deblock=1:-3:-3 / analyse=0x3:0x133 / me=umh / subme=11 / psy=1 / psy_rd=1.00:0.15 / mixed_ref=1 / me_range=48 / chroma_me=1 / trellis=2 / 8x8dct=1 / cqm=0 / deadzone=21,11 / fast_pskip=0 / chroma_qp_offset=-3 / threads=25 / lookahead_threads=4 / sliced_threads=0 / nr=0 / decimate=0 / interlaced=0 / bluray_compat=0 / constrained_intra=0 / bframes=8 / b_pyramid=2 / b_adapt=2 / b_bias=0 / direct=3 / weightb=1 / open_gop=0 / weightp=2 / keyint=250 / keyint_min=23 / scenecut=40 / intra_refresh=0 / rc_lookahead=60 / rc=crf / mbtree=0 / crf=26.0 / qcomp=0.70 / qpmin=0 / qpmax=69 / qpstep=4 / vbv_maxrate=45800 / vbv_bufsize=36000 / crf_max=0.0 / nal_hrd=none / filler=0 / ip_ratio=1.30 / pb_ratio=1.20 / aq=1:0.80
  40. Default                     : Yes
  41. Forced                      : No
  42.  
  43. Audio
  44. ID                          : 2
  45. Format                      : AC-3
  46. Format/Info                 : Audio Coding 3
  47. Format settings, Endianness : Big
  48. Codec ID                    : A_AC3
  49. Duration                    : 1 h 51 min
  50. Bit rate mode               : Constant
  51. Bit rate                    : 384 kb/s
  52. Channel(s)                  : 6 channels
  53. Channel positions           : Front: L C R, Side: L R, LFE
  54. Sampling rate               : 48.0 kHz
  55. Frame rate                  : 31.250 FPS (1536 SPF)
  56. Bit depth                   : 16 bits
  57. Compression mode            : Lossy
  58. Stream size                 : 307 MiB (14%)
  59. Language                    : English
  60. Service kind                : Complete Main
  61. Default                     : No
  62. Forced                      : No
  63.  
  64. Text
  65. ID                          : 3
  66. Format                      : PGS
  67. Muxing mode                 : zlib
  68. Codec ID                    : S_HDMV/PGS
  69. Codec ID/Info               : Picture based subtitle format used on BDs/HD-DVDs
  70. Duration                    : 1 h 42 min
  71. Bit rate                    : 27.0 kb/s
  72. Count of elements           : 2578
  73. Stream size                 : 19.8 MiB (1%)
  74. Language                    : English
  75. Default                     : Yes
  76. Forced                      : No
  77.  
  78. Menu
  79. 00:00:00.000                : en:Chapter 01
  80. 00:08:55.535                : en:Chapter 02
  81. 00:16:09.969                : en:Chapter 03
  82. 00:23:30.033                : en:Chapter 04
  83. 00:29:16.421                : en:Chapter 05
  84. 00:36:45.494                : en:Chapter 06
  85. 00:43:58.510                : en:Chapter 07
  86. 00:52:32.399                : en:Chapter 08
  87. 00:57:09.551                : en:Chapter 09
  88. 01:07:07.815                : en:Chapter 10
  89. 01:14:02.604                : en:Chapter 11
  90. 01:17:44.284                : en:Chapter 12
  91. 01:22:37.118                : en:Chapter 13
  92. 01:27:14.229                : en:Chapter 14
  93. 01:34:03.012                : en:Chapter 15
  94. 01:43:24.990                : en:Chapter 16
View raw paste Reply