Author: Not specified Language: text
Description: Not specified Timestamp: 2018-05-27 08:26:22 +0000
View raw paste Child paste by: Not specified Reply
  1. General
  2. Unique ID                   : 172710038973087245864756448397968117055 (0x81EEBE5AF60797418E171803636D8D3F)
  3. Complete name               : D:\N\Jurassic.World.2015.REMASTERED.1080p.BluRay.x264.DD5.1-Pahe.in.mkv
  4. Format                      : Matroska
  5. Format version              : Version 4 / Version 2
  6. File size                   : 2.76 GiB
  7. Duration                    : 2 h 4 min
  8. Overall bit rate            : 3 174 kb/s
  9. Movie name                  : Jurassic World (2015) - 4K Source
  10. Encoded date                : UTC 2018-05-25 17:07:55
  11. Writing application         : mkvmerge v15.0.0 ('Duel with the Devil') 64-bit
  12. Writing library             : libebml v1.3.5 + libmatroska v1.4.5
  13. Cover                       : Yes
  14. Attachments                 : cover.jpg
  15. Encoded by                  : ʕ·ᴥ· ʔ Pahe.in
  16.  
  17. Video
  18. ID                          : 1
  19. Format                      : AVC
  20. Format/Info                 : Advanced Video Codec
  21. Format profile              : High@L4.1
  22. Format settings             : CABAC / 4 Ref Frames
  23. Format settings, CABAC      : Yes
  24. Format settings, ReFrames   : 4 frames
  25. Codec ID                    : V_MPEG4/ISO/AVC
  26. Duration                    : 2 h 4 min
  27. Bit rate                    : 2 778 kb/s
  28. Width                       : 1 920 pixels
  29. Height                      : 960 pixels
  30. Display aspect ratio        : 2.000
  31. Frame rate mode             : Constant
  32. Frame rate                  : 23.976 (24000/1001) FPS
  33. Color space                 : YUV
  34. Chroma subsampling          : 4:2:0
  35. Bit depth                   : 8 bits
  36. Scan type                   : Progressive
  37. Bits/(Pixel*Frame)          : 0.063
  38. Stream size                 : 2.41 GiB (88%)
  39. Writing library             : x264 core 152 r2851 ba24899
  40. Encoding settings           : cabac=1 / ref=4 / deblock=1:-3:-3 / analyse=0x3:0x133 / me=umh / subme=10 / psy=1 / psy_rd=1.00:0.15 / mixed_ref=1 / me_range=48 / chroma_me=1 / trellis=2 / 8x8dct=1 / cqm=0 / deadzone=21,11 / fast_pskip=0 / chroma_qp_offset=-3 / threads=18 / lookahead_threads=3 / sliced_threads=0 / nr=0 / decimate=0 / interlaced=0 / bluray_compat=0 / constrained_intra=0 / bframes=8 / b_pyramid=2 / b_adapt=2 / b_bias=0 / direct=3 / weightb=1 / open_gop=0 / weightp=2 / keyint=250 / keyint_min=23 / scenecut=40 / intra_refresh=0 / rc_lookahead=60 / rc=crf / mbtree=0 / crf=26.9 / qcomp=0.60 / qpmin=0 / qpmax=69 / qpstep=4 / vbv_maxrate=35000 / vbv_bufsize=30000 / crf_max=0.0 / nal_hrd=none / filler=0 / ip_ratio=1.30 / pb_ratio=1.20 / aq=3:0.80
  41. Default                     : Yes
  42. Forced                      : No
  43. Color range                 : Limited
  44. Matrix coefficients         : BT.709
  45.  
  46. Audio
  47. ID                          : 2
  48. Format                      : AC-3
  49. Format/Info                 : Audio Coding 3
  50. Codec ID                    : A_AC3
  51. Duration                    : 2 h 4 min
  52. Bit rate mode               : Constant
  53. Bit rate                    : 384 kb/s
  54. Channel(s)                  : 6 channels
  55. Channel positions           : Front: L C R, Side: L R, LFE
  56. Sampling rate               : 48.0 kHz
  57. Frame rate                  : 31.250 FPS (1536 SPF)
  58. Bit depth                   : 16 bits
  59. Compression mode            : Lossy
  60. Stream size                 : 342 MiB (12%)
  61. Language                    : English
  62. Service kind                : Complete Main
  63. Default                     : No
  64. Forced                      : No
  65.  
  66. Text #1
  67. ID                          : 3
  68. Format                      : UTF-8
  69. Codec ID                    : S_TEXT/UTF8
  70. Codec ID/Info               : UTF-8 Plain Text
  71. Duration                    : 1 h 52 min
  72. Bit rate                    : 46 b/s
  73. Count of elements           : 1252
  74. Stream size                 : 38.7 KiB (0%)
  75. Language                    : English
  76. Default                     : No
  77. Forced                      : No
  78.  
  79. Text #2
  80. ID                          : 4
  81. Format                      : PGS
  82. Muxing mode                 : zlib
  83. Codec ID                    : S_HDMV/PGS
  84. Codec ID/Info               : Picture based subtitle format used on BDs/HD-DVDs
  85. Duration                    : 1 h 53 min
  86. Bit rate                    : 36.1 kb/s
  87. Count of elements           : 2989
  88. Stream size                 : 29.4 MiB (1%)
  89. Language                    : English
  90. Default                     : Yes
  91. Forced                      : No
  92.  
  93. Text #3
  94. ID                          : 5
  95. Format                      : UTF-8
  96. Codec ID                    : S_TEXT/UTF8
  97. Codec ID/Info               : UTF-8 Plain Text
  98. Duration                    : 1 h 52 min
  99. Bit rate                    : 43 b/s
  100. Count of elements           : 1222
  101. Stream size                 : 35.6 KiB (0%)
  102. Language                    : Indonesian
  103. Default                     : No
  104. Forced                      : No
  105.  
  106. Menu
  107. 00:00:00.000                : en:Chapter 1
  108. 00:06:59.168                : en:Chapter 2
  109. 00:11:01.827                : en:Chapter 3
  110. 00:18:28.440                : en:Chapter 4
  111. 00:25:34.866                : en:Chapter 5
  112. 00:31:20.837                : en:Chapter 6
  113. 00:39:23.861                : en:Chapter 7

This paste is large and only partially shown.
View full paste

View raw paste Child paste by: Not specified Reply