Author: Not specified Language: text
Description: Not specified Timestamp: 2018-01-20 11:56:52 +0000
View raw paste Child paste by: Not specified Reply
  1. General
  2. Unique ID                   : 200740588773742985749785847939804544376 (0x97053B2931C8274EBAE7229C26B9BD78)
  3. Complete name               : D:\N\Blade.Runner.2049.2017.REMASTERED.1080p.BluRay.x264.DD5.1-Pahe.in.mkv
  4. Format                      : Matroska
  5. Format version              : Version 4 / Version 2
  6. File size                   : 3.64 GiB
  7. Duration                    : 2 h 43 min
  8. Overall bit rate            : 3 185 kb/s
  9. Movie name                  : Blade Runner 2049 (2017)
  10. Encoded date                : UTC 2018-01-18 13:38:36
  11. Writing application         : mkvmerge v13.0.0 ('The Juggler') 64bit
  12. Writing library             : libebml v1.3.4 + libmatroska v1.4.5
  13. Cover                       : Yes
  14. Attachments                 : cover.jpg
  15. Encoded by                  : Pahe.in™ Team
  16.  
  17. Video
  18. ID                          : 1
  19. Format                      : AVC
  20. Format/Info                 : Advanced Video Codec
  21. Format profile              : High@L4.1
  22. Format settings             : CABAC / 5 Ref Frames
  23. Format settings, CABAC      : Yes
  24. Format settings, ReFrames   : 5 frames
  25. Codec ID                    : V_MPEG4/ISO/AVC
  26. Duration                    : 2 h 43 min
  27. Bit rate                    : 2 786 kb/s
  28. Width                       : 1 920 pixels
  29. Height                      : 800 pixels
  30. Display aspect ratio        : 2.40:1
  31. Frame rate mode             : Constant
  32. Frame rate                  : 23.976 (24000/1001) FPS
  33. Color space                 : YUV
  34. Chroma subsampling          : 4:2:0
  35. Bit depth                   : 8 bits
  36. Scan type                   : Progressive
  37. Bits/(Pixel*Frame)          : 0.076
  38. Stream size                 : 3.18 GiB (87%)
  39. Title                       : https://pahe.in
  40. Writing library             : x264 core 152 r2851 ba24899
  41. Encoding settings           : cabac=1 / ref=5 / deblock=1:-3:-3 / analyse=0x3:0x133 / me=umh / subme=10 / psy=1 / psy_rd=1.00:0.15 / mixed_ref=1 / me_range=48 / chroma_me=1 / trellis=2 / 8x8dct=1 / cqm=0 / deadzone=21,11 / fast_pskip=0 / chroma_qp_offset=-3 / threads=18 / lookahead_threads=3 / sliced_threads=0 / nr=0 / decimate=0 / interlaced=0 / bluray_compat=0 / constrained_intra=0 / bframes=8 / b_pyramid=2 / b_adapt=2 / b_bias=0 / direct=3 / weightb=1 / open_gop=0 / weightp=2 / keyint=250 / keyint_min=23 / scenecut=40 / intra_refresh=0 / rc_lookahead=60 / rc=crf / mbtree=0 / crf=21.4 / qcomp=0.70 / qpmin=0 / qpmax=69 / qpstep=4 / vbv_maxrate=45800 / vbv_bufsize=36000 / crf_max=0.0 / nal_hrd=none / filler=0 / ip_ratio=1.30 / pb_ratio=1.20 / aq=3:0.80
  42. Default                     : Yes
  43. Forced                      : No
  44.  
  45. Audio
  46. ID                          : 2
  47. Format                      : AC-3
  48. Format/Info                 : Audio Coding 3
  49. Codec ID                    : A_AC3
  50. Duration                    : 2 h 43 min
  51. Bit rate mode               : Constant
  52. Bit rate                    : 384 kb/s
  53. Channel(s)                  : 6 channels
  54. Channel positions           : Front: L C R, Side: L R, LFE
  55. Sampling rate               : 48.0 kHz
  56. Frame rate                  : 31.250 FPS (1536 SPF)
  57. Bit depth                   : 16 bits
  58. Compression mode            : Lossy
  59. Stream size                 : 449 MiB (12%)
  60. Language                    : English
  61. Service kind                : Complete Main
  62. Default                     : No
  63. Forced                      : No
  64.  
  65. Text #1
  66. ID                          : 3
  67. Format                      : UTF-8
  68. Codec ID                    : S_TEXT/UTF8
  69. Codec ID/Info               : UTF-8 Plain Text
  70. Duration                    : 2 h 26 min
  71. Bit rate                    : 24 b/s
  72. Count of elements           : 974
  73. Stream size                 : 26.7 KiB (0%)
  74. Language                    : English
  75. Default                     : No
  76. Forced                      : No
  77.  
  78. Text #2
  79. ID                          : 4
  80. Format                      : PGS
  81. Muxing mode                 : zlib
  82. Codec ID                    : S_HDMV/PGS
  83. Codec ID/Info               : Picture based subtitle format used on BDs/HD-DVDs
  84. Duration                    : 2 h 32 min
  85. Bit rate                    : 14.9 kb/s
  86. Count of elements           : 1950
  87. Stream size                 : 16.3 MiB (0%)
  88. Language                    : English
  89. Default                     : No
  90. Forced                      : No
  91.  
  92. Text #3
  93. ID                          : 5
  94. Format                      : VobSub
  95. Muxing mode                 : zlib
  96. Codec ID                    : S_VOBSUB
  97. Codec ID/Info               : Picture based subtitle format used on DVDs
  98. Duration                    : 2 h 42 min
  99. Bit rate                    : 4 811 b/s
  100. Count of elements           : 1058
  101. Stream size                 : 5.60 MiB (0%)
  102. Language                    : Indonesian
  103. Default                     : Yes
  104. Forced                      : No
  105.  
  106. Text #4
  107. ID                          : 6
  108. Format                      : VobSub
  109. Muxing mode                 : zlib
  110. Codec ID                    : S_VOBSUB
  111. Codec ID/Info               : Picture based subtitle format used on DVDs
  112. Duration                    : 2 h 42 min
  113. Bit rate                    : 5 144 b/s

This paste is large and only partially shown.
View full paste

View raw paste Child paste by: Not specified Reply