Author: Not specified Language: text
Description: Not specified Timestamp: 2021-04-08 07:32:39 +0000
View raw paste Reply
  1. General
  2. Unique ID                   : 312834636417983200946174089014772181357 (0xEB59C26781BF0B26DEA6AF35F853296D)
  3. Complete name               : D:\JD DL\remux\Batman.v.Superman.Dawn.of.Justice.2016.Ultimate.Cut.1080p.IMAX.Remastered.BluRay.x264.DD+7.1-Pahe.in.mkv
  4. Format                      : Matroska
  5. Format version              : Version 4
  6. File size                   : 4.96 GiB
  7. Duration                    : 3 h 2 min
  8. Overall bit rate            : 3 891 kb/s
  9. Movie name                  : Batman v Superman: Dawn of Justice 2016 Extended IMAX - Pahe.in
  10. Encoded date                : UTC 2021-04-08 03:23:22
  11. Writing application         : mkvmerge v24.0.0 ('Beyond The Pale') 64-bit
  12. Writing library             : libebml v1.3.6 + libmatroska v1.4.9
  13. Cover                       : Yes
  14. Attachments                 : cover.jpg
  15. Encoded by                  : Pahe.in™ Team
  16.  
  17. Video
  18. ID                          : 1
  19. Format                      : AVC
  20. Format/Info                 : Advanced Video Codec
  21. Format profile              : High@L4.1
  22. Format settings             : CABAC / 4 Ref Frames
  23. Format settings, CABAC      : Yes
  24. Format settings, Reference  : 4 frames
  25. Codec ID                    : V_MPEG4/ISO/AVC
  26. Duration                    : 3 h 2 min
  27. Bit rate                    : 3 333 kb/s
  28. Width                       : 1 920 pixels
  29. Height                      : 1 080 pixels
  30. Display aspect ratio        : 16:9
  31. Frame rate mode             : Constant
  32. Frame rate                  : 23.976 (24000/1001) FPS
  33. Color space                 : YUV
  34. Chroma subsampling          : 4:2:0
  35. Bit depth                   : 8 bits
  36. Scan type                   : Progressive
  37. Bits/(Pixel*Frame)          : 0.067
  38. Stream size                 : 4.24 GiB (86%)
  39. Writing library             : x264 core 155 r2901 7d0ff22
  40. Encoding settings           : cabac=1 / ref=4 / deblock=1:-3:-3 / analyse=0x3:0x133 / me=umh / subme=10 / psy=1 / psy_rd=1.00:0.15 / mixed_ref=1 / me_range=48 / chroma_me=1 / trellis=2 / 8x8dct=1 / cqm=0 / deadzone=21,11 / fast_pskip=0 / chroma_qp_offset=-3 / threads=34 / lookahead_threads=5 / sliced_threads=0 / nr=0 / decimate=0 / interlaced=0 / bluray_compat=0 / constrained_intra=0 / bframes=8 / b_pyramid=2 / b_adapt=2 / b_bias=0 / direct=3 / weightb=1 / open_gop=0 / weightp=2 / keyint=250 / keyint_min=23 / scenecut=40 / intra_refresh=0 / rc_lookahead=60 / rc=2pass / mbtree=0 / bitrate=3333 / ratetol=1.0 / qcomp=0.60 / qpmin=0 / qpmax=69 / qpstep=4 / cplxblur=20.0 / qblur=0.5 / vbv_maxrate=33500 / vbv_bufsize=30000 / nal_hrd=none / filler=0 / ip_ratio=1.30 / pb_ratio=1.20 / aq=3:0.80
  41. Default                     : Yes
  42. Forced                      : No
  43.  
  44. Audio #1
  45. ID                          : 2
  46. Format                      : E-AC-3
  47. Format/Info                 : Enhanced AC-3
  48. Commercial name             : Dolby Digital Plus
  49. Codec ID                    : A_EAC3
  50. Duration                    : 3 h 2 min
  51. Bit rate mode               : Constant
  52. Bit rate                    : 448 kb/s
  53. Channel(s)                  : 8 channels
  54. Channel layout              : L R C LFE Ls Rs Lb Rb
  55. Sampling rate               : 48.0 kHz
  56. Frame rate                  : 31.250 FPS (1536 SPF)
  57. Compression mode            : Lossy
  58. Stream size                 : 585 MiB (12%)
  59. Language                    : English
  60. Service kind                : Complete Main
  61. Default                     : No
  62. Forced                      : No
  63.  
  64. Audio #2
  65. ID                          : 3
  66. Format                      : AAC LC
  67. Format/Info                 : Advanced Audio Codec Low Complexity
  68. Codec ID                    : A_AAC-2
  69. Duration                    : 3 h 2 min
  70. Bit rate                    : 83.5 kb/s
  71. Channel(s)                  : 2 channels
  72. Channel layout              : L R
  73. Sampling rate               : 48.0 kHz
  74. Frame rate                  : 46.875 FPS (1024 SPF)
  75. Compression mode            : Lossy
  76. Delay relative to video     : 9 ms
  77. Stream size                 : 109 MiB (2%)
  78. Title                       : Commentary by Director Zack Snyder
  79. Language                    : English
  80. Default                     : No
  81. Forced                      : No
  82.  
  83. Text #1
  84. ID                          : 4
  85. Format                      : UTF-8
  86. Codec ID                    : S_TEXT/UTF8
  87. Codec ID/Info               : UTF-8 Plain Text
  88. Duration                    : 2 h 53 min
  89. Bit rate                    : 36 b/s
  90. Count of elements           : 1478
  91. Stream size                 : 46.8 KiB (0%)
  92. Language                    : English
  93. Default                     : No
  94. Forced                      : No
  95.  
  96. Text #2
  97. ID                          : 5
  98. Format                      : PGS
  99. Muxing mode                 : zlib
  100. Codec ID                    : S_HDMV/PGS
  101. Codec ID/Info               : Picture based subtitle format used on BDs/HD-DVDs
  102. Duration                    : 2 h 53 min
  103. Bit rate                    : 27.2 kb/s
  104. Count of elements           : 3712
  105. Stream size                 : 33.7 MiB (1%)
  106. Language                    : English
  107. Default                     : Yes
  108. Forced                      : No

This paste is large and only partially shown.
View full paste

View raw paste Reply