Author: Not specified Language: text
Description: Not specified Timestamp: 2013-05-29 17:17:54 +0000
View raw paste Reply
  1.  
  2. x264 [info]: frame I:1354  Avg QP:17.52  size: 83964
  3. x264 [info]: frame P:36195 Avg QP:20.46  size: 20365
  4. x264 [info]: frame B:98674 Avg QP:22.86  size:  6136
  5. x264 [info]: consecutive B-frames:  3.0%  3.7% 27.3% 27.3% 15.6% 17.5%  2.7%  2.9%
  6.  
  7. General
  8. Unique ID                                : 250094643935796980195294093022701827624 (0xBC2679F34C43E4EB8E61205B36BC3628)
  9. Complete name                            : C:\Users\Phoenix92\Desktop\Done\Despicable.Me.2010-m720p.BD.AC3.x264-4ko.mkv
  10. Format                                   : Matroska
  11. Format version                           : Version 4 / Version 2
  12. File size                                : 1.78 GiB
  13. Duration                                 : 1h 34mn
  14. Overall bit rate                         : 2 692 Kbps
  15. Encoded date                             : UTC 2013-05-29 16:16:08
  16. Writing application                      : mkvmerge v6.2.0 ('Promised Land') built on Apr 28 2013 12:22:01
  17. Writing library                          : libebml v1.3.0 + libmatroska v1.4.0
  18.  
  19. Video
  20. ID                                       : 1
  21. Format                                   : AVC
  22. Format/Info                              : Advanced Video Codec
  23. Format profile                           : High@L4.1
  24. Format settings, CABAC                   : Yes
  25. Format settings, ReFrames                : 9 frames
  26. Codec ID                                 : V_MPEG4/ISO/AVC
  27. Duration                                 : 1h 34mn
  28. Bit rate                                 : 1 999 Kbps
  29. Width                                    : 1 280 pixels
  30. Height                                   : 694 pixels
  31. Display aspect ratio                     : 1.85:1
  32. Frame rate mode                          : Constant
  33. Frame rate                               : 23.976 fps
  34. Color space                              : YUV
  35. Chroma subsampling                       : 4:2:0
  36. Bit depth                                : 8 bits
  37. Scan type                                : Progressive
  38. Bits/(Pixel*Frame)                       : 0.094
  39. Stream size                              : 1.32 GiB (74%)
  40. Title                                    : Despicable Me 2010 - m720p.BD.AC3.x264 - 4ko
  41. Writing library                          : x264 core 133 r2334 a3ac64b
  42. Encoding settings                        : cabac=1 / ref=9 / deblock=1:-3:-3 / analyse=0x3:0x113 / me=umh / subme=11 / psy=1 / psy_rd=1.00:0.00 / mixed_ref=1 / me_range=24 / chroma_me=1 / trellis=2 / 8x8dct=1 / cqm=0 / deadzone=21,11 / fast_pskip=0 / chroma_qp_offset=-2 / threads=12 / lookahead_threads=2 / sliced_threads=0 / nr=0 / decimate=0 / interlaced=0 / bluray_compat=0 / constrained_intra=0 / bframes=7 / b_pyramid=2 / b_adapt=2 / b_bias=0 / direct=3 / weightb=1 / open_gop=0 / weightp=2 / keyint=250 / keyint_min=23 / scenecut=40 / intra_refresh=0 / rc=crf / mbtree=0 / crf=20.0 / qcomp=0.60 / qpmin=0 / qpmax=69 / qpstep=4 / ip_ratio=1.40 / pb_ratio=1.30 / aq=1:0.80
  43. Language                                 : English
  44. Default                                  : Yes
  45. Forced                                   : No
  46.  
  47. Audio
  48. ID                                       : 2
  49. Format                                   : AC-3
  50. Format/Info                              : Audio Coding 3
  51. Mode extension                           : CM (complete main)
  52. Format settings, Endianness              : Big
  53. Codec ID                                 : A_AC3
  54. Duration                                 : 1h 34mn
  55. Bit rate mode                            : Constant
  56. Bit rate                                 : 640 Kbps
  57. Channel(s)                               : 6 channels
  58. Channel positions                        : Front: L C R, Side: L R, LFE
  59. Sampling rate                            : 48.0 KHz
  60. Bit depth                                : 16 bits
  61. Compression mode                         : Lossy
  62. Stream size                              : 433 MiB (24%)
  63. Title                                    : AC3 5.1 @ 640 Kbps 48K - 4ko
  64. Language                                 : English
  65. Default                                  : Yes
  66. Forced                                   : No
  67.  
  68. Text
  69. ID                                       : 3
  70. Format                                   : UTF-8
  71. Codec ID                                 : S_TEXT/UTF8
  72. Codec ID/Info                            : UTF-8 Plain Text
  73. Title                                    : 4ko @ FreeHD.vn
  74. Language                                 : English
  75. Default                                  : Yes
  76. Forced                                   : No
  77.  
  78. Menu
  79. 00:00:00.000                             : en:00:00:00.000
  80. 00:03:22.411                             : en:00:03:22.411
  81. 00:06:31.891                             : en:00:06:31.891
  82. 00:12:05.099                             : en:00:12:05.099
  83. 00:13:50.496                             : en:00:13:50.496
  84. 00:18:38.826                             : en:00:18:38.826
  85. 00:23:06.844                             : en:00:23:06.844
  86. 00:25:56.221                             : en:00:25:56.221
  87. 00:30:40.839                             : en:00:30:40.839

This paste is large and only partially shown.
View full paste

View raw paste Reply