Author: nvtuan86 Language: text
Description: Not specified Timestamp: 2017-09-14 11:58:34 +0000
View raw paste Reply
  1. General
  2. Unique ID                                : 202327377214744875990639928201041774365 (0x9836D5DF0CC42932B060E9444A71871D)
  3. Complete name                            : D:\VietHD\Pirates of the Caribbean Dead Men Tell No Tales 2017 1080p BluRay DTS x264-VietHD\Pirates of the Caribbean Dead Men Tell No Tales 2017 1080p BluRay DTS x264-VietHD.mkv
  4. Format                                   : Matroska
  5. Format version                           : Version 4 / Version 2
  6. File size                                : 16.8 GiB
  7. Duration                                 : 2h 9mn
  8. Overall bit rate                         : 18.7 Mbps
  9. Movie name                               : Pirates of the Caribbean Dead Men Tell No Tales 2017 1080p BluRay DTS x264-VietHD
  10. Encoded date                             : UTC 2017-09-14 11:25:10
  11. Writing application                      : mkvmerge v14.0.0 ('Flow') 64bit
  12. Writing library                          : libebml v1.3.4 + libmatroska v1.4.5
  13.  
  14. Video
  15. ID                                       : 8
  16. Format                                   : AVC
  17. Format/Info                              : Advanced Video Codec
  18. Format profile                           : High@L4.1
  19. Format settings, CABAC                   : Yes
  20. Format settings, ReFrames                : 5 frames
  21. Codec ID                                 : V_MPEG4/ISO/AVC
  22. Duration                                 : 2h 9mn
  23. Bit rate                                 : 17.2 Mbps
  24. Width                                    : 1 920 pixels
  25. Height                                   : 800 pixels
  26. Display aspect ratio                     : 2.40:1
  27. Frame rate mode                          : Constant
  28. Frame rate                               : 23.976 (24000/1001) fps
  29. Color space                              : YUV
  30. Chroma subsampling                       : 4:2:0
  31. Bit depth                                : 8 bits
  32. Scan type                                : Progressive
  33. Bits/(Pixel*Frame)                       : 0.466
  34. Stream size                              : 15.5 GiB (92%)
  35. Writing library                          : x264 core 150 r2833+21 82447f2 VietHD_Custom
  36. Encoding settings                        : cabac=1 / ref=5 / deblock=1:-3:-3 / analyse=0x3:0x133 / me=umh / subme=10 / psy=1 / fade_compensate=0.00 / psy_rd=1.10:0.00 / mixed_ref=1 / me_range=24 / chroma_me=1 / trellis=2 / 8x8dct=1 / cqm=0 / deadzone=21,11 / fast_pskip=0 / chroma_qp_offset=-2 / threads=12 / lookahead_threads=2 / sliced_threads=0 / nr=0 / decimate=0 / interlaced=0 / bluray_compat=0 / constrained_intra=0 / fgo=0 / bframes=8 / b_pyramid=2 / b_adapt=2 / b_bias=0 / direct=3 / weightb=1 / open_gop=0 / weightp=2 / keyint=250 / keyint_min=23 / scenecut=40 / intra_refresh=0 / rc_lookahead=60 / rc=crf / mbtree=0 / crf=17.5000 / qcomp=0.60 / qpmin=0:0:0 / qpmax=69:69:69 / qpstep=4 / vbv_maxrate=62500 / vbv_bufsize=78125 / crf_max=0.0 / nal_hrd=none / filler=0 / ip_ratio=1.30 / pb_ratio=1.20 / aq=3:0.78 / aq-sensitivity=10.00 / aq-factor=1.00:1.00:1.00 / aq2=0 / aq3=0 / zones=0,20791,crf=16.8/40732,61083,crf=16.8/82463,90644,crf=16.5/95736,98019,crf=16.8/122393,161748,crf=16.8
  37. Language                                 : English
  38. Default                                  : Yes
  39. Forced                                   : No
  40. Color range                              : Limited
  41. Matrix coefficients                      : BT.709
  42.  
  43. Audio
  44. ID                                       : 12
  45. Format                                   : DTS
  46. Format/Info                              : Digital Theater Systems
  47. Mode                                     : 16
  48. Format settings, Endianness              : Big
  49. Codec ID                                 : A_DTS
  50. Duration                                 : 2h 9mn
  51. Bit rate mode                            : Constant
  52. Bit rate                                 : 1 509 Kbps
  53. Channel(s)                               : 6 channels
  54. Channel positions                        : Front: L C R, Side: L R, LFE
  55. Sampling rate                            : 48.0 KHz
  56. Frame rate                               : 93.750 fps (512 spf)
  57. Bit depth                                : 24 bits
  58. Compression mode                         : Lossy
  59. Stream size                              : 1.36 GiB (8%)
  60. Language                                 : English
  61. Default                                  : Yes
  62. Forced                                   : No
  63.  
  64. Text #1
  65. ID                                       : 1
  66. Format                                   : UTF-8
  67. Codec ID                                 : S_TEXT/UTF8
  68. Codec ID/Info                            : UTF-8 Plain Text
  69. Duration                                 : 1h 55mn
  70. Bit rate                                 : 45 bps
  71. Count of elements                        : 1435
  72. Stream size                              : 38.2 KiB (0%)
  73. Language                                 : English
  74. Default                                  : No
  75. Forced                                   : No
  76.  
  77. Text #2
  78. ID                                       : 2
  79. Format                                   : UTF-8

This paste is large and only partially shown.
View full paste

View raw paste Reply