Author: Madagascar 3 Europes Most Wanted 1080P Language: text
Description: Not specified Timestamp: 2013-05-27 06:16:25 +0000
View raw paste Child paste by: Not specified Reply
  1. General
  2.  
  3. Complete name                            : Madagascar.3.Europes.Most.Wanted.(2012).BluRay.1080p.x264.Dual-Audio-by.Rosum.mkv
  4. Format                                   : Matroska
  5. Format version                           : Version 2
  6. File size                                : 7.69 GiB
  7. Duration                                 : 1h 33mn
  8. Overall bit rate mode                    : Variable
  9. Overall bit rate                         : 11.8 Mbps
  10. Movie name                               : Madagascar 3 Europes Most Wanted { 2012 } - Release for "rosum-clips.blogspot.com"
  11. Encoded date                             : UTC 2013-03-05 02:31:46
  12. Writing application                      : mkvmerge v5.0.1 ('Es ist Sommer') built on Oct  9 2011 11:55:43
  13. Writing library                          : libebml v1.2.2 + libmatroska v1.3.0
  14.  
  15. Video
  16. ID                                       : 1
  17. Format                                   : AVC
  18. Format/Info                              : Advanced Video Codec
  19. Format profile                           : High@L4.1
  20. Format settings, CABAC                   : Yes
  21. Format settings, ReFrames                : 3 frames
  22. Muxing mode                              : Header stripping
  23. Codec ID                                 : V_MPEG4/ISO/AVC
  24. Duration                                 : 1h 33mn
  25. Bit rate mode                            : Variable
  26. Bit rate                                 : 10.5 Mbps
  27. Maximum bit rate                         : 17.0 Mbps
  28. Width                                    : 1 920 pixels
  29. Height                                   : 1 080 pixels
  30. Display aspect ratio                     : 16:9
  31. Frame rate mode                          : Constant
  32. Frame rate                               : 23.976 fps
  33. Color space                              : YUV
  34. Chroma subsampling                       : 4:2:0
  35. Bit depth                                : 8 bits
  36. Scan type                                : Progressive
  37. Bits/(Pixel*Frame)                       : 0.211
  38. Stream size                              : 6.70 GiB (87%)
  39. Title                                    : Exclusive Release "Rosum"
  40. Writing library                          : x264 core 125 r2208 d9d2288
  41. Encoding settings                        : cabac=1 / ref=3 / deblock=1:-2:-2 / analyse=0x3:0x113 / me=umh / subme=9 / psy=1 / psy_rd=0.80:0.00 / mixed_ref=1 / me_range=32 / chroma_me=1 / trellis=1 / 8x8dct=1 / cqm=0 / deadzone=21,11 / fast_pskip=0 / chroma_qp_offset=-2 / threads=12 / lookahead_threads=2 / sliced_threads=0 / nr=0 / decimate=0 / interlaced=0 / bluray_compat=0 / constrained_intra=0 / bframes=5 / b_pyramid=1 / b_adapt=2 / b_bias=0 / direct=1 / weightb=1 / open_gop=0 / weightp=2 / keyint=24 / keyint_min=2 / scenecut=40 / intra_****************************=0 / rc_lookahead=24 / rc=2pass / mbtree=1 / bitrate=10483 / ratetol=1.0 / qcomp=0.60 / qpmin=0 / qpmax=69 / qpstep=4 / cplxblur=20.0 / qblur=0.5 / vbv_maxrate=17000 / vbv_bufsize=17500 / nal_hrd=vbr / ip_ratio=1.40 / aq=1:0.80
  42. ********************************                                 : English
  43. Default                                  : No
  44. Forced                                   : No
  45.  
  46. Audio #1
  47. ID                                       : 2
  48. Format                                   : AC-3
  49. Format/Info                              : Audio Coding 3
  50. Mode extension                           : CM (complete main)
  51. Format settings, Endianness              : Big
  52. Muxing mode                              : Header stripping
  53. Codec ID                                 : A_AC3
  54. Duration                                 : 1h 33mn
  55. Bit rate mode                            : Constant
  56. Bit rate                                 : 640 Kbps
  57. Channel(s)                               : 6 channels
  58. Channel positions                        : Front: L C R, Side: L R, LFE
  59. Sampling rate                            : 48.0 KHz
  60. Bit depth                                : 16 bits
  61. Compression mode                         : Lossy
  62. Stream size                              : 428 MiB (5%)
  63. Title                                    : Arabic, Original Blu-ray, AC3, 5.1 ch , 640 kbps, 48.0 KHz
  64. ********************************                                 : Arabic
  65. Default                                  : Yes
  66. Forced                                   : No
  67.  
  68. Audio #2
  69. ID                                       : 3
  70. Format                                   : AC-3
  71. Format/Info                              : Audio Coding 3
  72. Mode extension                           : CM (complete main)
  73. Format settings, Endianness              : Big
  74. Muxing mode                              : Header stripping
  75. Codec ID                                 : A_AC3
  76. Duration                                 : 1h 33mn
  77. Bit rate mode                            : Constant
  78. Bit rate                                 : 640 Kbps
  79. Channel(s)                               : 6 channels
  80. Channel positions                        : Front: L C R, Side: L R, LFE
  81. Sampling rate                            : 48.0 KHz
  82. Bit depth                                : 16 bits

This paste is large and only partially shown.
View full paste

View raw paste Child paste by: Not specified Reply