Author: Not specified Language: text
Description: Not specified Timestamp: 2017-07-07 10:18:55 +0000
View raw paste Child paste by: Not specified Reply
  1. General
  2. Format                                   : Matroska
  3. Format version                           : Version 4 / Version 2
  4. File size                                : 2.75 GiB
  5. Duration                                 : 2h 15mn
  6. Overall bit rate                         : 2 900 Kbps
  7. Movie name                               : The Fate of the Furious (2017) - Pahe.in
  8. Encoded date                             : UTC 2017-07-04 19:49:42
  9. Writing application                      : mkvmerge v9.6.0 ('Slave To Your Mind') 64bit
  10. Writing library                          : libebml v1.3.4 + libmatroska v1.4.5
  11. Cover                                    : Yes
  12. Attachments                              : cover.jpg
  13.  
  14. Video
  15. ID                                       : 1
  16. Format                                   : AVC
  17. Format/Info                              : Advanced Video Codec
  18. Format profile                           : High@L4.1
  19. Format settings, CABAC                   : Yes
  20. Format settings, ReFrames                : 5 frames
  21. Codec ID                                 : V_MPEG4/ISO/AVC
  22. Duration                                 : 2h 15mn
  23. Bit rate                                 : 2 504 Kbps
  24. Width                                    : 1 920 pixels
  25. Height                                   : 804 pixels
  26. Display aspect ratio                     : 2.40:1
  27. Frame rate mode                          : Constant
  28. Frame rate                               : 23.976 (24000/1001) fps
  29. Color space                              : YUV
  30. Chroma subsampling                       : 4:2:0
  31. Bit depth                                : 8 bits
  32. Scan type                                : Progressive
  33. Bits/(Pixel*Frame)                       : 0.068
  34. Stream size                              : 2.38 GiB (86%)
  35. Writing library                          : x264 core 148 r2721 72d53ab
  36. Encoding settings                        : cabac=1 / ref=5 / deblock=1:-3:-3 / analyse=0x3:0x133 / me=umh / subme=11 / psy=1 / psy_rd=1.00:0.15 / mixed_ref=1 / me_range=48 / chroma_me=1 / trellis=2 / 8x8dct=1 / cqm=0 / deadzone=21,11 / fast_pskip=0 / chroma_qp_offset=-3 / threads=25 / lookahead_threads=4 / sliced_threads=0 / nr=0 / decimate=0 / interlaced=0 / bluray_compat=0 / constrained_intra=0 / bframes=8 / b_pyramid=2 / b_adapt=2 / b_bias=0 / direct=3 / weightb=1 / open_gop=0 / weightp=2 / keyint=250 / keyint_min=23 / scenecut=40 / intra_refresh=0 / rc_lookahead=60 / rc=crf / mbtree=0 / crf=25.0 / qcomp=0.70 / qpmin=0 / qpmax=69 / qpstep=4 / vbv_maxrate=62500 / vbv_bufsize=78125 / crf_max=0.0 / nal_hrd=none / filler=0 / ip_ratio=1.40 / pb_ratio=1.30 / aq=1:0.80 / zones=27,588,b=1.5/12790,12811,b=1.5/29509,36132,b=1.5/68710,68895,b=1.5/99905,99953,b=1.5/117140,117365,b=1.5/140866,141336,b=1.5/142645,142783,b=1.5/142857,143059,b=1.5/143123,143342,b=1.5/143440,143600,b=1.5/144558,144752,b=1.5/145867,145936,b=1.5/148542,148559,b=1.5/149102,149264,b=1.5/151023,151042,b=1.5/162426,162670,b=1.5/170446,170550,b=1.5/162904,163052,b=1.5/166268,166418,b=1.5/170981,171095,b=1.5/171187,171524,b=1.5/173122,173576,b=1.5/182530,195580,b=0.3
  37. Default                                  : Yes
  38. Forced                                   : No
  39.  
  40. Audio
  41. ID                                       : 2
  42. Format                                   : AC-3
  43. Format/Info                              : Audio Coding 3
  44. Mode extension                           : CM (complete main)
  45. Format settings, Endianness              : Big
  46. Codec ID                                 : A_AC3
  47. Duration                                 : 2h 15mn
  48. Bit rate mode                            : Constant
  49. Bit rate                                 : 384 Kbps
  50. Channel(s)                               : 6 channels
  51. Channel positions                        : Front: L C R, Side: L R, LFE
  52. Sampling rate                            : 48.0 KHz
  53. Frame rate                               : 31.250 fps (1536 spf)
  54. Compression mode                         : Lossy
  55. Stream size                              : 373 MiB (13%)
  56. Language                                 : English
  57. Default                                  : No
  58. Forced                                   : No
  59.  
  60. Text
  61. ID                                       : 3
  62. Format                                   : PGS
  63. Muxing mode                              : zlib
  64. Codec ID                                 : S_HDMV/PGS
  65. Codec ID/Info                            : Picture based subtitle format used on BDs/HD-DVDs
  66. Duration                                 : 2h 4mn
  67. Bit rate                                 : 12.0 Kbps
  68. Count of elements                        : 3568
  69. Stream size                              : 10.7 MiB (0%)
  70. Language                                 : English
  71. Default                                  : Yes
  72. Forced                                   : No
  73.  
  74. Menu
  75. 00:00:00.000                             : en:Chapter 01
  76. 00:13:08.913                             : en:Chapter 02
  77. 00:20:30.771                             : en:Chapter 03
  78. 00:26:38.638                             : en:Chapter 04

This paste is large and only partially shown.
View full paste

View raw paste Child paste by: Not specified Reply