Author: Not specified Language: text
Description: Not specified Timestamp: 2017-09-25 23:47:35 +0000
View raw paste Child paste by: Not specified Reply
  1. General
  2. Source                      : Inferno.2016.2160p.BluRay.x264.8bit.SDR.DTS-HD.MA.TrueHD.7.1.Atmos-SWTYBLZ
  3. Format                      : Matroska
  4. Format version              : Version 4 / Version 2
  5. File size                   : 3.82 GiB
  6. Duration                    : 2 h 1 min
  7. Overall bit rate            : 4 498 kb/s
  8. Movie name                  : Inferno (2016)
  9. Encoded date                : UTC 2017-09-25 17:01:50
  10. Writing application         : mkvmerge v13.0.0 ('The Juggler') 64bit
  11. Writing library             : libebml v1.3.4 + libmatroska v1.4.5
  12. Cover                       : Yes
  13. Attachments                 : cover.jpg
  14. Encoder                     : Pahe.in Team
  15.  
  16. Video
  17. ID                          : 1
  18. Format                      : AVC
  19. Format/Info                 : Advanced Video Codec
  20. Format profile              : High@L4.1
  21. Format settings, CABAC      : Yes
  22. Format settings, RefFrames  : 4 frames
  23. Codec ID                    : V_MPEG4/ISO/AVC
  24. Duration                    : 2 h 1 min
  25. Bit rate                    : 4 112 kb/s
  26. Width                       : 1 920 pixels
  27. Height                      : 1 040 pixels
  28. Display aspect ratio        : 1.85:1
  29. Frame rate mode             : Constant
  30. Frame rate                  : 23.976 (24000/1001) FPS
  31. Color space                 : YUV
  32. Chroma subsampling          : 4:2:0
  33. Bit depth                   : 8 bits
  34. Scan type                   : Progressive
  35. Bits/(Pixel*Frame)          : 0.086
  36. Stream size                 : 3.49 GiB (91%)
  37. Writing library             : x264 core 152 r2851 ba24899
  38. Encoding settings           : cabac=1 / ref=4 / deblock=1:-3:-3 / analyse=0x3:0x133 / me=umh / subme=11 / psy=1 / psy_rd=1.00:0.15 / mixed_ref=1 / me_range=48 / chroma_me=1 / trellis=2 / 8x8dct=1 / cqm=0 / deadzone=21,11 / fast_pskip=0 / chroma_qp_offset=-3 / threads=32 / lookahead_threads=5 / sliced_threads=0 / nr=0 / decimate=0 / interlaced=0 / bluray_compat=0 / constrained_intra=0 / bframes=8 / b_pyramid=2 / b_adapt=2 / b_bias=0 / direct=3 / weightb=1 / open_gop=0 / weightp=2 / keyint=250 / keyint_min=23 / scenecut=40 / intra_refresh=0 / rc_lookahead=60 / rc=crf / mbtree=0 / crf=25.0 / qcomp=0.70 / qpmin=0 / qpmax=69 / qpstep=4 / vbv_maxrate=44444 / vbv_bufsize=35000 / crf_max=0.0 / nal_hrd=none / filler=0 / ip_ratio=1.30 / pb_ratio=1.20 / aq=3:0.80
  39. Default                     : Yes
  40. Forced                      : No
  41.  
  42. Audio
  43. ID                          : 2
  44. Format                      : AC-3
  45. Format/Info                 : Audio Coding 3
  46. Format settings, Endianness : Big
  47. Codec ID                    : A_AC3
  48. Duration                    : 2 h 1 min
  49. Bit rate mode               : Constant
  50. Bit rate                    : 384 kb/s
  51. Channel(s)                  : 6 channels
  52. Channel positions           : Front: L C R, Side: L R, LFE
  53. Sampling rate               : 48.0 kHz
  54. Frame rate                  : 31.250 FPS (1536 SPF)
  55. Bit depth                   : 16 bits
  56. Compression mode            : Lossy
  57. Stream size                 : 334 MiB (9%)
  58. Language                    : English
  59. Service kind                : Complete Main
  60. Default                     : No
  61. Forced                      : No
  62.  
  63. Text
  64. ID                          : 3
  65. Format                      : UTF-8
  66. Codec ID                    : S_TEXT/UTF8
  67. Codec ID/Info               : UTF-8 Plain Text
  68. Duration                    : 1 h 55 min
  69. Bit rate                    : 55 b/s
  70. Count of elements           : 1360
  71. Stream size                 : 46.5 KiB (0%)
  72. Language                    : English
  73. Default                     : No
  74. Forced                      : No
View raw paste Child paste by: Not specified Reply