Author: Not specified Language: text
Description: Not specified Timestamp: 2017-09-04 22:42:22 +0000
View raw paste Child paste by: Not specified Reply
  1. General
  2. Source                      : The.Mummy.2017.REMUX.BluRay.1080p.AVC.Atmos.TrueHD7.1-iFT
  3. Format                      : Matroska
  4. Format version              : Version 4 / Version 2
  5. File size                   : 3.33 GiB
  6. Duration                    : 1 h 50 min
  7. Overall bit rate            : 4 330 kb/s
  8. Movie name                  : The Mummy (2017)
  9. Encoded date                : UTC 2017-09-01 05:43:18
  10. Writing application         : mkvmerge v13.0.0 ('The Juggler') 64bit
  11. Writing library             : libebml v1.3.4 + libmatroska v1.4.5
  12. Cover                       : Yes
  13. Attachments                 : cover.jpg
  14. Encoder                     : Pahe.inŽ
  15.  
  16. Video
  17. ID                          : 1
  18. Format                      : AVC
  19. Format/Info                 : Advanced Video Codec
  20. Format profile              : High@L4.1
  21. Format settings, CABAC      : Yes
  22. Format settings, RefFrames  : 5 frames
  23. Codec ID                    : V_MPEG4/ISO/AVC
  24. Duration                    : 1 h 50 min
  25. Bit rate                    : 3 940 kb/s
  26. Width                       : 1 920 pixels
  27. Height                      : 800 pixels
  28. Display aspect ratio        : 2.40:1
  29. Frame rate mode             : Constant
  30. Frame rate                  : 23.976 (24000/1001) FPS
  31. Color space                 : YUV
  32. Chroma subsampling          : 4:2:0
  33. Bit depth                   : 8 bits
  34. Scan type                   : Progressive
  35. Bits/(Pixel*Frame)          : 0.107
  36. Stream size                 : 3.03 GiB (91%)
  37. Title                       : https://pahe.in
  38. Writing library             : x264 core 152 r2851 ba24899
  39. Encoding settings           : cabac=1 / ref=5 / deblock=1:-3:-3 / analyse=0x3:0x133 / me=umh / subme=11 / psy=1 / psy_rd=1.00:0.15 / mixed_ref=1 / me_range=48 / chroma_me=1 / trellis=2 / 8x8dct=1 / cqm=0 / deadzone=21,11 / fast_pskip=0 / chroma_qp_offset=-3 / threads=25 / lookahead_threads=4 / sliced_threads=0 / nr=0 / decimate=0 / interlaced=0 / bluray_compat=0 / constrained_intra=0 / bframes=8 / b_pyramid=2 / b_adapt=2 / b_bias=0 / direct=3 / weightb=1 / open_gop=0 / weightp=2 / keyint=250 / keyint_min=23 / scenecut=40 / intra_refresh=0 / rc_lookahead=60 / rc=crf / mbtree=0 / crf=24.3 / qcomp=0.70 / qpmin=0 / qpmax=69 / qpstep=4 / vbv_maxrate=25000 / vbv_bufsize=40000 / crf_max=0.0 / nal_hrd=none / filler=0 / ip_ratio=1.40 / pb_ratio=1.30 / aq=3:0.70
  40. Default                     : Yes
  41. Forced                      : No
  42. Color range                 : Limited
  43. Color primaries             : BT.709
  44. Transfer characteristics    : BT.709
  45. Matrix coefficients         : BT.709
  46.  
  47. Audio
  48. ID                          : 2
  49. Format                      : AC-3
  50. Format/Info                 : Audio Coding 3
  51. Format settings, Endianness : Big
  52. Codec ID                    : A_AC3
  53. Duration                    : 1 h 50 min
  54. Bit rate mode               : Constant
  55. Bit rate                    : 384 kb/s
  56. Channel(s)                  : 6 channels
  57. Channel positions           : Front: L C R, Side: L R, LFE
  58. Sampling rate               : 48.0 kHz
  59. Frame rate                  : 31.250 FPS (1536 SPF)
  60. Bit depth                   : 16 bits
  61. Compression mode            : Lossy
  62. Stream size                 : 302 MiB (9%)
  63. Language                    : English
  64. Service kind                : Complete Main
  65. Default                     : No
  66. Forced                      : No
  67.  
  68. Text #1
  69. ID                          : 3
  70. Format                      : UTF-8
  71. Codec ID                    : S_TEXT/UTF8
  72. Codec ID/Info               : UTF-8 Plain Text
  73. Duration                    : 1 h 36 min
  74. Bit rate                    : 41 b/s
  75. Count of elements           : 1050
  76. Stream size                 : 29.4 KiB (0%)
  77. Language                    : English
  78. Default                     : No
  79. Forced                      : No
  80.  
  81. Text #2
  82. ID                          : 4
  83. Format                      : VobSub
  84. Muxing mode                 : zlib
  85. Codec ID                    : S_VOBSUB
  86. Codec ID/Info               : Picture based subtitle format used on DVDs
  87. Duration                    : 1 h 37 min
  88. Bit rate                    : 9 099 b/s
  89. Count of elements           : 1357
  90. Stream size                 : 6.37 MiB (0%)
  91. Language                    : English
  92. Default                     : Yes
  93. Forced                      : No
View raw paste Child paste by: Not specified Reply