Author: Not specified Language: text
Description: Not specified Timestamp: 2018-06-07 06:12:48 +0000
View raw paste Reply
  1. General
  2. Unique ID                   : 230622709285003451527319143942639171226 (0xAD805173609FFA67B471422CCAF5B69A)
  3. Complete name               : K:\Adventure.Time.S09\Adventure.Time.S09E01.Orb.1080p.AMZN.WEB-DL.DD+2.0.H.264-CtrlHD.mkv
  4. Format                      : Matroska
  5. Format version              : Version 4 / Version 2
  6. File size                   : 209 MiB
  7. Duration                    : 11 min 24 s
  8. Overall bit rate mode       : Variable
  9. Overall bit rate            : 2 560 kb/s
  10. Encoded date                : UTC 2017-09-10 13:31:56
  11. Writing application         : mkvmerge v15.0.0 ('Duel with the Devil') 64-bit
  12. Writing library             : libebml v1.3.5 + libmatroska v1.4.5
  13.  
  14. Video
  15. ID                          : 1
  16. Format                      : AVC
  17. Format/Info                 : Advanced Video Codec
  18. Format profile              : High@L4
  19. Format settings             : CABAC / 4 Ref Frames
  20. Format settings, CABAC      : Yes
  21. Format settings, ReFrames   : 4 frames
  22. Codec ID                    : V_MPEG4/ISO/AVC
  23. Duration                    : 11 min 24 s
  24. Bit rate mode               : Variable
  25. Bit rate                    : 2 334 kb/s
  26. Maximum bit rate            : 15.0 Mb/s
  27. Width                       : 1 920 pixels
  28. Height                      : 1 080 pixels
  29. Display aspect ratio        : 16:9
  30. Frame rate mode             : Constant
  31. Frame rate                  : 23.976 (24000/1001) FPS
  32. Color space                 : YUV
  33. Chroma subsampling          : 4:2:0
  34. Bit depth                   : 8 bits
  35. Scan type                   : Progressive
  36. Bits/(Pixel*Frame)          : 0.047
  37. Stream size                 : 190 MiB (91%)
  38. Default                     : Yes
  39. Forced                      : No
  40. Color range                 : Limited
  41. Color primaries             : BT.709
  42. Transfer characteristics    : BT.709
  43. Matrix coefficients         : BT.709
  44.  
  45. Audio
  46. ID                          : 2
  47. Format                      : E-AC-3
  48. Format/Info                 : Enhanced Audio Coding 3
  49. Codec ID                    : A_EAC3
  50. Duration                    : 11 min 24 s
  51. Bit rate mode               : Constant
  52. Bit rate                    : 224 kb/s
  53. Channel(s)                  : 2 channels
  54. Channel positions           : Front: L R
  55. Sampling rate               : 48.0 kHz
  56. Frame rate                  : 187.500 FPS (256 SPF)
  57. Compression mode            : Lossy
  58. Stream size                 : 18.3 MiB (9%)
  59. Language                    : English
  60. Service kind                : Complete Main
  61. Default                     : Yes
  62. Forced                      : No
  63.  
  64. Text
  65. ID                          : 3
  66. Format                      : UTF-8
  67. Codec ID                    : S_TEXT/UTF8
  68. Codec ID/Info               : UTF-8 Plain Text
  69. Duration                    : 11 min 14 s
  70. Bit rate                    : 67 b/s
  71. Count of elements           : 243
  72. Stream size                 : 5.52 KiB (0%)
  73. Language                    : English
  74. Default                     : Yes
  75. Forced                      : No
  76.  
View raw paste Reply