Author: Not specified Language: text
Description: Not specified Timestamp: 2019-11-11 07:35:59 +0000
View raw paste Child paste by: Not specified Reply
  1. General
  2. Unique ID                   : 295710401808237258079762815908793652190 (0xDE77C0740F37A342124781369AC593DE)
  3. Complete name               : F:\Dora.and.the.Lost.City.of.Gold.2019.1080p.BluRay.x265.10Bit.6CH-Pahe.in.mkv
  4. Format                      : Matroska
  5. Format version              : Version 4
  6. File size                   : 1.72 GiB
  7. Duration                    : 1 h 42 min
  8. Overall bit rate            : 2 400 kb/s
  9. Movie name                  : Dora and the Lost City of Gold - Pahe.in
  10. Encoded date                : UTC 2019-11-11 05:14:36
  11. Writing application         : mkvmerge v24.0.0 ('Beyond The Pale') 64-bit
  12. Writing library             : libebml v1.3.6 + libmatroska v1.4.9
  13. Cover                       : Yes
  14. Attachments                 : cover.jpg
  15. Encoded by                  : Pahe.in™ Team
  16.  
  17. Video
  18. ID                          : 1
  19. Format                      : HEVC
  20. Format/Info                 : High Efficiency Video Coding
  21. Format profile              : Main 10@L4.1@High
  22. Codec ID                    : V_MPEGH/ISO/HEVC
  23. Duration                    : 1 h 42 min
  24. Bit rate                    : 2 033 kb/s
  25. Width                       : 1 920 pixels
  26. Height                      : 1 080 pixels
  27. Display aspect ratio        : 16:9
  28. Frame rate mode             : Constant
  29. Frame rate                  : 23.976 (24000/1001) FPS
  30. Color space                 : YUV
  31. Chroma subsampling          : 4:2:0
  32. Bit depth                   : 10 bits
  33. Bits/(Pixel*Frame)          : 0.041
  34. Stream size                 : 1.46 GiB (85%)
  35. Writing library             : x265 3.2+5-gfbe9fef31:[Windows][GCC 9.2.0][64 bit] 10bit
  36. Default                     : Yes
  37. Forced                      : No
  38. Color range                 : Limited
  39. Color primaries             : BT.709
  40. Matrix coefficients         : BT.709
  41.  
  42. Audio
  43. ID                          : 2
  44. Format                      : AAC LC
  45. Format/Info                 : Advanced Audio Codec Low Complexity
  46. Codec ID                    : A_AAC-2
  47. Duration                    : 1 h 42 min
  48. Bit rate                    : 342 kb/s
  49. Channel(s)                  : 6 channels
  50. Channel layout              : C L R Ls Rs LFE
  51. Sampling rate               : 48.0 kHz
  52. Frame rate                  : 46.875 FPS (1024 SPF)
  53. Compression mode            : Lossy
  54. Delay relative to video     : 9 ms
  55. Stream size                 : 250 MiB (14%)
  56. Language                    : English
  57. Default                     : No
  58. Forced                      : No
  59.  
  60. Text #1
  61. ID                          : 3
  62. Format                      : PGS
  63. Muxing mode                 : zlib
  64. Codec ID                    : S_HDMV/PGS
  65. Codec ID/Info               : Picture based subtitle format used on BDs/HD-DVDs
  66. Duration                    : 1 h 37 min
  67. Bit rate                    : 42.9 kb/s
  68. Count of elements           : 2800
  69. Stream size                 : 29.8 MiB (2%)
  70. Language                    : English
  71. Default                     : Yes
  72. Forced                      : No
  73.  
  74. Text #2
  75. ID                          : 4
  76. Format                      : UTF-8
  77. Codec ID                    : S_TEXT/UTF8
  78. Codec ID/Info               : UTF-8 Plain Text
  79. Duration                    : 1 h 37 min
  80. Bit rate                    : 62 b/s
  81. Count of elements           : 1474
  82. Stream size                 : 44.7 KiB (0%)
  83. Language                    : English
  84. Default                     : No
  85. Forced                      : No
  86.  
  87. Menu
  88. 00:00:00.000                : en:00:00:00.000
  89. 00:04:52.417                : en:00:04:52.417
  90. 00:09:49.088                : en:00:09:49.088
  91. 00:15:35.643                : en:00:15:35.643
  92. 00:20:26.767                : en:00:20:26.767
  93. 00:25:47.838                : en:00:25:47.838
  94. 00:35:15.780                : en:00:35:15.780
  95. 00:42:53.738                : en:00:42:53.738
  96. 00:47:13.664                : en:00:47:13.664
  97. 00:52:57.883                : en:00:52:57.883
  98. 00:55:41.463                : en:00:55:41.463
  99. 01:01:02.659                : en:01:01:02.659
  100. 01:06:11.301                : en:01:06:11.301
  101. 01:10:23.136                : en:01:10:23.136
  102. 01:13:52.136                : en:01:13:52.136
  103. 01:18:26.327                : en:01:18:26.327
  104. 01:22:39.496                : en:01:22:39.496
  105. 01:32:57.322                : en:01:32:57.322
  106. 01:38:30.238                : en:01:38:30.238
  107.  
  108.  
View raw paste Child paste by: Not specified Reply