Author: Not specified Language: text
Description: Not specified Timestamp: 2018-06-16 02:19:15 +0000
View raw paste Child paste by: Not specified Reply
  1. General
  2. Unique ID                   : 194041675745105086704794840733282388652 (0x91FB113FA983FF9680EB540B960ECAAC)
  3. Complete name               : E:\Ser\Tomb.Raider.2018.REMASTERED.1080p.BluRay.x264.DD5.1-Pahe.in.mkv
  4. Format                      : Matroska
  5. Format version              : Version 4 / Version 2
  6. File size                   : 2.59 GiB
  7. Duration                    : 1 h 57 min
  8. Overall bit rate            : 3 142 kb/s
  9. Movie name                  : Tomb Raider (2018) - Pahe.in
  10. Encoded date                : UTC 2018-06-15 09:47:21
  11. Writing application         : mkvmerge v15.0.0 ('Duel with the Devil') 64-bit
  12. Writing library             : libebml v1.3.5 + libmatroska v1.4.5
  13. Cover                       : Yes
  14. Attachments                 : cover.jpg
  15. Encoded by                  : Pahe.inĀ® Team
  16.  
  17. Video
  18. ID                          : 1
  19. Format                      : AVC
  20. Format/Info                 : Advanced Video Codec
  21. Format profile              : High@L4.1
  22. Format settings             : CABAC / 5 Ref Frames
  23. Format settings, CABAC      : Yes
  24. Format settings, ReFrames   : 5 frames
  25. Codec ID                    : V_MPEG4/ISO/AVC
  26. Duration                    : 1 h 57 min
  27. Bit rate                    : 2 749 kb/s
  28. Width                       : 1 920 pixels
  29. Height                      : 804 pixels
  30. Display aspect ratio        : 2.40:1
  31. Frame rate mode             : Constant
  32. Frame rate                  : 23.976 (24000/1001) FPS
  33. Color space                 : YUV
  34. Chroma subsampling          : 4:2:0
  35. Bit depth                   : 8 bits
  36. Scan type                   : Progressive
  37. Bits/(Pixel*Frame)          : 0.074
  38. Stream size                 : 2.26 GiB (88%)
  39. Writing library             : x264 core 152 r2851 ba24899
  40. Encoding settings           : cabac=1 / ref=5 / deblock=1:-3:-3 / analyse=0x3:0x133 / me=umh / subme=10 / psy=1 / psy_rd=1.00:0.15 / mixed_ref=1 / me_range=48 / chroma_me=1 / trellis=2 / 8x8dct=1 / cqm=0 / deadzone=21,11 / fast_pskip=0 / chroma_qp_offset=-3 / threads=18 / lookahead_threads=3 / sliced_threads=0 / nr=0 / decimate=0 / interlaced=0 / bluray_compat=0 / constrained_intra=0 / bframes=8 / b_pyramid=2 / b_adapt=2 / b_bias=0 / direct=3 / weightb=1 / open_gop=0 / weightp=2 / keyint=250 / keyint_min=23 / scenecut=40 / intra_refresh=0 / rc_lookahead=60 / rc=crf / mbtree=0 / crf=24.3 / qcomp=0.60 / qpmin=0 / qpmax=69 / qpstep=4 / vbv_maxrate=27500 / vbv_bufsize=25000 / crf_max=0.0 / nal_hrd=none / filler=0 / ip_ratio=1.30 / pb_ratio=1.20 / aq=3:1.00
  41. Default                     : Yes
  42. Forced                      : No
  43.  
  44. Audio
  45. ID                          : 2
  46. Format                      : AC-3
  47. Format/Info                 : Audio Coding 3
  48. Codec ID                    : A_AC3
  49. Duration                    : 1 h 57 min
  50. Bit rate mode               : Constant
  51. Bit rate                    : 384 kb/s
  52. Channel(s)                  : 6 channels
  53. Channel positions           : Front: L C R, Side: L R, LFE
  54. Sampling rate               : 48.0 kHz
  55. Frame rate                  : 31.250 FPS (1536 SPF)
  56. Bit depth                   : 16 bits
  57. Compression mode            : Lossy
  58. Stream size                 : 324 MiB (12%)
  59. Language                    : English
  60. Service kind                : Complete Main
  61. Default                     : No
  62. Forced                      : No
  63.  
  64. Text #1
  65. ID                          : 3
  66. Format                      : UTF-8
  67. Codec ID                    : S_TEXT/UTF8
  68. Codec ID/Info               : UTF-8 Plain Text
  69. Duration                    : 1 h 50 min
  70. Bit rate                    : 29 b/s
  71. Count of elements           : 854
  72. Stream size                 : 24.0 KiB (0%)
  73. Language                    : English
  74. Default                     : No
  75. Forced                      : No
  76.  
  77. Text #2
  78. ID                          : 4
  79. Format                      : PGS
  80. Muxing mode                 : zlib
  81. Codec ID                    : S_HDMV/PGS
  82. Codec ID/Info               : Picture based subtitle format used on BDs/HD-DVDs
  83. Duration                    : 1 h 56 min
  84. Bit rate                    : 20.6 kb/s
  85. Count of elements           : 2244
  86. Stream size                 : 17.2 MiB (1%)
  87. Language                    : English
  88. Default                     : Yes
  89. Forced                      : No
  90.  
  91. Menu
  92. 00:00:00.000                : en:Chapter 1
  93. 00:13:13.250                : en:Chapter 2
  94. 00:24:04.234                : en:Chapter 3
  95. 00:31:57.999                : en:Chapter 4
  96. 00:39:57.061                : en:Chapter 5
  97. 00:50:31.069                : en:Chapter 6
  98. 01:04:49.844                : en:Chapter 7
  99. 01:13:58.100                : en:Chapter 8
  100. 01:20:17.395                : en:Chapter 9
  101. 01:27:41.130                : en:Chapter 10
  102. 01:38:41.624                : en:Chapter 11
  103. 01:51:17.420                : en:Chapter 12
  104.  
  105.  
View raw paste Child paste by: Not specified Reply