Author: Not specified Language: text
Description: Not specified Timestamp: 2018-03-18 23:53:49 +0000
View raw paste Child paste by: Not specified Reply
  1. General
  2. Unique ID                   : 250689366846126814466468427219002695533 (0xBC99040DC095D88BB70F74F0EA8F9F6D)
  3. Complete name               : D:\N\Star.Wars.The.Last.Jedi.2017.REMASTERED.1080p.BluRay.x264.DD5.1-Pahe.in.mkv
  4. Format                      : Matroska
  5. Format version              : Version 4 / Version 2
  6. File size                   : 3.95 GiB
  7. Duration                    : 2 h 31 min
  8. Overall bit rate            : 3 721 kb/s
  9. Movie name                  : Star Wars: The Last Jedi (2017)
  10. Encoded date                : UTC 2018-03-17 22:34:08
  11. Writing application         : mkvmerge v13.0.0 ('The Juggler') 64bit
  12. Writing library             : libebml v1.3.4 + libmatroska v1.4.5
  13. Cover                       : Yes
  14. Attachments                 : cover.jpg
  15. Encoded by                  : Pahe.in™ Team
  16.  
  17. Video
  18. ID                          : 1
  19. Format                      : AVC
  20. Format/Info                 : Advanced Video Codec
  21. Format profile              : High@L4.1
  22. Format settings             : CABAC / 5 Ref Frames
  23. Format settings, CABAC      : Yes
  24. Format settings, ReFrames   : 5 frames
  25. Codec ID                    : V_MPEG4/ISO/AVC
  26. Duration                    : 2 h 31 min
  27. Bit rate                    : 3 325 kb/s
  28. Width                       : 1 920 pixels
  29. Height                      : 804 pixels
  30. Display aspect ratio        : 2.40:1
  31. Frame rate mode             : Constant
  32. Frame rate                  : 23.976 (24000/1001) FPS
  33. Color space                 : YUV
  34. Chroma subsampling          : 4:2:0
  35. Bit depth                   : 8 bits
  36. Scan type                   : Progressive
  37. Bits/(Pixel*Frame)          : 0.090
  38. Stream size                 : 3.53 GiB (89%)
  39. Writing library             : x264 core 152 r2851 ba24899
  40. Encoding settings           : cabac=1 / ref=5 / deblock=1:-3:-3 / analyse=0x3:0x133 / me=umh / subme=10 / psy=1 / psy_rd=1.00:0.15 / mixed_ref=1 / me_range=48 / chroma_me=1 / trellis=2 / 8x8dct=1 / cqm=0 / deadzone=21,11 / fast_pskip=0 / chroma_qp_offset=-3 / threads=18 / lookahead_threads=3 / sliced_threads=0 / nr=0 / decimate=0 / interlaced=0 / bluray_compat=0 / constrained_intra=0 / bframes=8 / b_pyramid=2 / b_adapt=2 / b_bias=0 / direct=3 / weightb=1 / open_gop=0 / weightp=2 / keyint=250 / keyint_min=23 / scenecut=40 / intra_refresh=0 / rc_lookahead=60 / rc=crf / mbtree=0 / crf=24.0 / qcomp=0.70 / qpmin=0 / qpmax=69 / qpstep=4 / vbv_maxrate=45800 / vbv_bufsize=36000 / crf_max=0.0 / nal_hrd=none / filler=0 / ip_ratio=1.30 / pb_ratio=1.20 / aq=3:0.80
  41. Default                     : Yes
  42. Forced                      : No
  43.  
  44. Audio
  45. ID                          : 2
  46. Format                      : AC-3
  47. Format/Info                 : Audio Coding 3
  48. Codec ID                    : A_AC3
  49. Duration                    : 2 h 31 min
  50. Bit rate mode               : Constant
  51. Bit rate                    : 384 kb/s
  52. Channel(s)                  : 6 channels
  53. Channel positions           : Front: L C R, Side: L R, LFE
  54. Sampling rate               : 48.0 kHz
  55. Frame rate                  : 31.250 FPS (1536 SPF)
  56. Bit depth                   : 16 bits
  57. Compression mode            : Lossy
  58. Delay relative to video     : 32 ms
  59. Stream size                 : 417 MiB (10%)
  60. Language                    : English
  61. Service kind                : Complete Main
  62. Default                     : No
  63. Forced                      : No
  64.  
  65. Text #1
  66. ID                          : 3
  67. Format                      : UTF-8
  68. Codec ID                    : S_TEXT/UTF8
  69. Codec ID/Info               : UTF-8 Plain Text
  70. Duration                    : 2 h 23 min
  71. Bit rate                    : 45 b/s
  72. Count of elements           : 1898
  73. Stream size                 : 47.9 KiB (0%)
  74. Language                    : English
  75. Default                     : No
  76. Forced                      : No
  77.  
  78. Text #2
  79. ID                          : 4
  80. Format                      : PGS
  81. Muxing mode                 : zlib
  82. Codec ID                    : S_HDMV/PGS
  83. Codec ID/Info               : Picture based subtitle format used on BDs/HD-DVDs
  84. Duration                    : 2 h 23 min
  85. Bit rate                    : 30.9 kb/s
  86. Count of elements           : 3796
  87. Stream size                 : 31.7 MiB (1%)
  88. Language                    : English
  89. Default                     : Yes
  90. Forced                      : No
  91.  
  92. Menu
  93. 00:00:00.000                : en:Chapter 1
  94. 00:00:18.643                : en:Chapter 2
  95. 00:01:45.730                : en:Chapter 3
  96. 00:03:11.816                : en:Chapter 4
  97. 00:07:43.296                : en:Chapter 5
  98. 00:12:48.434                : en:Chapter 6
  99. 00:13:44.573                : en:Chapter 7
  100. 00:16:29.279                : en:Chapter 8
  101. 00:19:59.281                : en:Chapter 9
  102. 00:22:51.369                : en:Chapter 10
  103. 00:26:04.980                : en:Chapter 11
  104. 00:27:22.849                : en:Chapter 12
  105. 00:31:24.757                : en:Chapter 13
  106. 00:32:54.681                : en:Chapter 14
  107. 00:35:27.667                : en:Chapter 15
  108. 00:38:11.497                : en:Chapter 16
  109. 00:41:53.427                : en:Chapter 17
  110. 00:44:29.541                : en:Chapter 18

This paste is large and only partially shown.
View full paste

View raw paste Child paste by: Not specified Reply