Author: Not specified Language: text
Description: Not specified Timestamp: 2019-11-27 08:59:06 +0000
View raw paste Reply
  1. General
  2. Unique ID                   : 234933477649038680221966844576770243812 (0xB0BE8ABD84E0DA0334153DED47BB3CE4)
  3. Complete name               : F:\Once.Upon.a.Time.in.Hollywood.2019.1080p.BluRay.x264.6CH-Pahe.in.mkv
  4. Format                      : Matroska
  5. Format version              : Version 4
  6. File size                   : 3.28 GiB
  7. Duration                    : 2 h 41 min
  8. Overall bit rate            : 2 910 kb/s
  9. Encoded date                : UTC 2019-11-27 08:54:04
  10. Writing application         : mkvmerge v24.0.0 ('Beyond The Pale') 64-bit
  11. Writing library             : libebml v1.3.6 + libmatroska v1.4.9
  12. Cover                       : Yes
  13. Attachments                 : cover.jpg
  14. Encoded by                  : Pahe.in™ Team
  15.  
  16. Video
  17. ID                          : 1
  18. Format                      : AVC
  19. Format/Info                 : Advanced Video Codec
  20. Format profile              : High@L4.1
  21. Format settings             : CABAC / 5 Ref Frames
  22. Format settings, CABAC      : Yes
  23. Format settings, Reference  : 5 frames
  24. Codec ID                    : V_MPEG4/ISO/AVC
  25. Duration                    : 2 h 41 min
  26. Bit rate                    : 2 704 kb/s
  27. Width                       : 1 920 pixels
  28. Height                      : 800 pixels
  29. Display aspect ratio        : 2.40:1
  30. Frame rate mode             : Constant
  31. Frame rate                  : 23.976 (24000/1001) FPS
  32. Color space                 : YUV
  33. Chroma subsampling          : 4:2:0
  34. Bit depth                   : 8 bits
  35. Scan type                   : Progressive
  36. Bits/(Pixel*Frame)          : 0.073
  37. Stream size                 : 3.05 GiB (93%)
  38. Writing library             : x264 core 155 r2901 7d0ff22
  39. Encoding settings           : cabac=1 / ref=5 / deblock=1:-3:-3 / analyse=0x3:0x133 / me=umh / subme=10 / psy=1 / psy_rd=1.00:0.15 / mixed_ref=1 / me_range=32 / chroma_me=1 / trellis=2 / 8x8dct=1 / cqm=0 / deadzone=21,11 / fast_pskip=0 / chroma_qp_offset=-3 / threads=24 / lookahead_threads=4 / sliced_threads=0 / nr=0 / decimate=0 / interlaced=0 / bluray_compat=0 / constrained_intra=0 / bframes=8 / b_pyramid=2 / b_adapt=2 / b_bias=0 / direct=3 / weightb=1 / open_gop=0 / weightp=2 / keyint=250 / keyint_min=23 / scenecut=40 / intra_refresh=0 / rc_lookahead=60 / rc=crf / mbtree=0 / crf=24.1 / qcomp=0.60 / qpmin=0 / qpmax=69 / qpstep=4 / vbv_maxrate=33500 / vbv_bufsize=30000 / crf_max=0.0 / nal_hrd=none / filler=0 / ip_ratio=1.30 / pb_ratio=1.20 / aq=3:0.80
  40. Default                     : Yes
  41. Forced                      : No
  42.  
  43. Audio
  44. ID                          : 2
  45. Format                      : AAC LC SBR
  46. Format/Info                 : Advanced Audio Codec Low Complexity with Spectral Band Replication
  47. Commercial name             : HE-AAC
  48. Format settings             : Explicit
  49. Codec ID                    : A_AAC-2
  50. Duration                    : 2 h 41 min
  51. Bit rate                    : 203 kb/s
  52. Channel(s)                  : 6 channels
  53. Channel layout              : C L R Ls Rs LFE
  54. Sampling rate               : 48.0 kHz
  55. Frame rate                  : 23.438 FPS (2048 SPF)
  56. Compression mode            : Lossy
  57. Delay relative to video     : 31 ms
  58. Stream size                 : 235 MiB (7%)
  59. Title                       : Pahe.in Encodes
  60. Language                    : English
  61. Default                     : No
  62. Forced                      : No
  63.  
  64. Text #1
  65. ID                          : 3
  66. Format                      : UTF-8
  67. Codec ID                    : S_TEXT/UTF8
  68. Codec ID/Info               : UTF-8 Plain Text
  69. Duration                    : 2 h 40 min
  70. Bit rate                    : 45 b/s
  71. Count of elements           : 1698
  72. Stream size                 : 53.1 KiB (0%)
  73. Language                    : Indonesian
  74. Default                     : No
  75. Forced                      : No
  76.  
  77. Text #2
  78. ID                          : 4
  79. Format                      : UTF-8
  80. Codec ID                    : S_TEXT/UTF8
  81. Codec ID/Info               : UTF-8 Plain Text
  82. Duration                    : 2 h 39 min
  83. Bit rate                    : 55 b/s
  84. Count of elements           : 1844
  85. Stream size                 : 64.8 KiB (0%)
  86. Language                    : English
  87. Default                     : Yes
  88. Forced                      : No
  89.  
  90. Menu
  91. 00:00:00.000                : en:00:00:00.000
  92. 00:04:49.414                : en:00:04:49.414
  93. 00:13:45.199                : en:00:13:45.199
  94. 00:18:29.150                : en:00:18:29.150
  95. 00:22:00.319                : en:00:22:00.319
  96. 00:25:59.349                : en:00:25:59.349
  97. 00:28:41.094                : en:00:28:41.094
  98. 00:33:45.106                : en:00:33:45.106
  99. 00:40:19.334                : en:00:40:19.334
  100. 00:49:59.455                : en:00:49:59.455
  101. 00:51:48.689                : en:00:51:48.689
  102. 00:59:52.255                : en:00:59:52.255
  103. 01:02:32.874                : en:01:02:32.874
  104. 01:04:28.615                : en:01:04:28.615
  105. 01:09:16.736                : en:01:09:16.736
  106. 01:17:40.781                : en:01:17:40.781
  107. 01:20:25.779                : en:01:20:25.779
  108. 01:26:28.433                : en:01:26:28.433
  109. 01:32:54.444                : en:01:32:54.444

This paste is large and only partially shown.
View full paste

View raw paste Reply