Author: Not specified Language: text
Description: Not specified Timestamp: 2019-12-17 22:49:35 +0000
View raw paste Reply
  1. General
  2. Unique ID                   : 44215888641716992789957901238422139099 (0x2143AB9F065FEBC110D1EE5EAD42F0DB)
  3. Complete name               : F:\Joker.2019.1080p.UHD.WEB-DL.x265.DD+5.1-Pahe.in.mkv
  4. Format                      : Matroska
  5. Format version              : Version 4
  6. File size                   : 1.76 GiB
  7. Duration                    : 2 h 1 min
  8. Overall bit rate            : 2 064 kb/s
  9. Movie name                  : Joker 2019 2160p Source - Pahe.in
  10. Encoded date                : UTC 2019-12-17 16:46:41
  11. Writing application         : mkvmerge v24.0.0 ('Beyond The Pale') 64-bit
  12. Writing library             : libebml v1.3.6 + libmatroska v1.4.9
  13. Cover                       : Yes
  14. Attachments                 : cover.jpg
  15. Encoded by                  : Pahe.in™ Team
  16.  
  17. Video
  18. ID                          : 1
  19. Format                      : HEVC
  20. Format/Info                 : High Efficiency Video Coding
  21. Format profile              : Main 10@L4.1@High
  22. Codec ID                    : V_MPEGH/ISO/HEVC
  23. Duration                    : 2 h 1 min
  24. Bit rate                    : 1 679 kb/s
  25. Width                       : 1 920 pixels
  26. Height                      : 1 038 pixels
  27. Display aspect ratio        : 1.85:1
  28. Frame rate mode             : Constant
  29. Frame rate                  : 23.976 (24000/1001) FPS
  30. Color space                 : YUV
  31. Chroma subsampling          : 4:2:0
  32. Bit depth                   : 10 bits
  33. Bits/(Pixel*Frame)          : 0.035
  34. Stream size                 : 1.43 GiB (81%)
  35. Writing library             : x265 3.2+5-gfbe9fef31:[Windows][GCC 9.2.0][64 bit] 10bit
  36. Encoding settings           : cpuid=1111039 / frame-threads=5 / numa-pools=16 / wpp / no-pmode / no-pme / no-psnr / no-ssim / log-level=2 / input-csp=1 / input-res=1920x1038 / interlace=0 / total-frames=175203 / level-idc=41 / high-tier=1 / uhd-bd=0 / ref=3 / no-allow-non-conformance / repeat-headers / annexb / aud / hrd / info / hash=0 / no-temporal-layers / no-open-gop / min-keyint=24 / keyint=240 / gop-lookahead=0 / bframes=4 / b-adapt=2 / b-pyramid / bframe-bias=0 / rc-lookahead=25 / lookahead-slices=4 / scenecut=40 / radl=0 / no-splice / no-intra-refresh / ctu=64 / min-cu-size=8 / no-rect / no-amp / max-tu-size=32 / tu-inter-depth=1 / tu-intra-depth=1 / limit-tu=0 / rdoq-level=2 / dynamic-rd=0.00 / no-ssim-rd / signhide / no-tskip / nr-intra=0 / nr-inter=0 / no-constrained-intra / no-strong-intra-smoothing / max-merge=3 / limit-refs=1 / limit-modes / me=1 / subme=3 / merange=35 / temporal-mvp / no-hme / weightp / no-weightb / no-analyze-src-pics / deblock=-3:-3 / no-sao / no-sao-non-deblock / rd=4 / selective-sao=0 / early-skip / rskip / no-fast-intra / no-tskip-fast / no-cu-lossless / b-intra / no-splitrd-skip / rdpenalty=0 / psy-rd=2.00 / psy-rdoq=0.00 / no-rd-refine / no-lossless / cbqpoffs=0 / crqpoffs=0 / rc=crf / crf=22.2 / qcomp=0.60 / qpstep=4 / stats-write=0 / stats-read=0 / vbv-maxrate=28000 / vbv-bufsize=27500 / vbv-init=0.9 / crf-max=0.0 / crf-min=0.0 / ipratio=1.40 / pbratio=1.30 / aq-mode=2 / aq-strength=1.00 / cutree / zone-count=0 / no-strict-cbr / qg-size=32 / no-rc-grain / qpmax=69 / qpmin=0 / no-const-vbv / sar=0 / overscan=0 / videoformat=5 / range=0 / colorprim=1 / transfer=2 / colormatrix=1 / chromaloc=0 / display-window=0 / cll=0,0 / min-luma=0 / max-luma=1023 / log2-max-poc-lsb=8 / vui-timing-info / vui-hrd-info / slices=1 / no-opt-qp-pps / no-opt-ref-list-length-pps / no-multi-pass-opt-rps / scenecut-bias=0.05 / no-opt-cu-delta-qp / no-aq-motion / no-hdr / no-hdr-opt / no-dhdr10-opt / no-idr-recovery-sei / analysis-reuse-level=5 / scale-factor=0 / refine-intra=0 / refine-inter=0 / refine-mv=1 / refine-ctu-distortion=0 / no-limit-sao / ctu-info=0 / no-lowpass-dct / refine-analysis-type=0 / copy-pic=1 / max-ausize-factor=1.0 / no-dynamic-refine / no-single-sei / no-hevc-aq / no-svt / no-field / qp-adaptation-range=1.00
  37. Default                     : Yes
  38. Forced                      : No
  39. Color range                 : Limited
  40. Color primaries             : BT.709
  41. Matrix coefficients         : BT.709
  42.  
  43. Audio
  44. ID                          : 2
  45. Format                      : E-AC-3
  46. Format/Info                 : Enhanced AC-3
  47. Commercial name             : Dolby Digital Plus
  48. Codec ID                    : A_EAC3
  49. Duration                    : 2 h 1 min
  50. Bit rate mode               : Constant
  51. Bit rate                    : 384 kb/s
  52. Channel(s)                  : 6 channels
  53. Channel layout              : L R C LFE Ls Rs
  54. Sampling rate               : 48.0 kHz
  55. Frame rate                  : 31.250 FPS (1536 SPF)
  56. Compression mode            : Lossy
  57. Stream size                 : 335 MiB (19%)
  58. Language                    : English
  59. Service kind                : Complete Main
  60. Default                     : No
  61. Forced                      : No
  62.  
  63. Text
  64. ID                          : 3
  65. Format                      : UTF-8
  66. Codec ID                    : S_TEXT/UTF8
  67. Codec ID/Info               : UTF-8 Plain Text
  68. Duration                    : 1 h 54 min
  69. Bit rate                    : 75 b/s

This paste is large and only partially shown.
View full paste

View raw paste Reply