Author: Not specified Language: text
Description: Not specified Timestamp: 2019-02-04 10:14:18 +0000
View raw paste Reply
  1. General
  2. Unique ID                   : 13451444477941075928638630019917049110 (0xA1EA76AADAA573B6276627FB06E6D16)
  3. Complete name               : E:\The.Great.Battle.2018.1080p.BluRay.x264.DD5.1-Pahe.in.mkv
  4. Format                      : Matroska
  5. Format version              : Version 4 / Version 2
  6. File size                   : 2.93 GiB
  7. Duration                    : 2 h 16 min
  8. Overall bit rate            : 3 077 kb/s
  9. Movie name                  : The Great Battle (2018)
  10. Encoded date                : UTC 2019-02-04 06:06:18
  11. Writing application         : mkvmerge v24.0.0 ('Beyond The Pale') 64-bit
  12. Writing library             : libebml v1.3.6 + libmatroska v1.4.9
  13. Cover                       : Yes
  14. Attachments                 : cover.jpg
  15. Encoded by                  : Pahe.in™ Team
  16.  
  17. Video
  18. ID                          : 1
  19. Format                      : AVC
  20. Format/Info                 : Advanced Video Codec
  21. Format profile              : High@L4.1
  22. Format settings             : CABAC / 5 Ref Frames
  23. Format settings, CABAC      : Yes
  24. Format settings, ReFrames   : 5 frames
  25. Codec ID                    : V_MPEG4/ISO/AVC
  26. Duration                    : 2 h 16 min
  27. Bit rate                    : 2 695 kb/s
  28. Width                       : 1 920 pixels
  29. Height                      : 804 pixels
  30. Display aspect ratio        : 2.40:1
  31. Frame rate mode             : Constant
  32. Frame rate                  : 24.000 FPS
  33. Color space                 : YUV
  34. Chroma subsampling          : 4:2:0
  35. Bit depth                   : 8 bits
  36. Scan type                   : Progressive
  37. Bits/(Pixel*Frame)          : 0.073
  38. Stream size                 : 2.56 GiB (87%)
  39. Writing library             : x264 core 155 r2901 7d0ff22
  40. Encoding settings           : cabac=1 / ref=5 / deblock=1:-3:-3 / analyse=0x3:0x133 / me=umh / subme=10 / psy=1 / psy_rd=1.00:0.15 / mixed_ref=1 / me_range=48 / chroma_me=1 / trellis=2 / 8x8dct=1 / cqm=0 / deadzone=21,11 / fast_pskip=0 / chroma_qp_offset=-3 / threads=24 / lookahead_threads=4 / sliced_threads=0 / nr=0 / decimate=0 / interlaced=0 / bluray_compat=0 / constrained_intra=0 / bframes=8 / b_pyramid=2 / b_adapt=2 / b_bias=0 / direct=3 / weightb=1 / open_gop=0 / weightp=2 / keyint=250 / keyint_min=24 / scenecut=40 / intra_refresh=0 / rc_lookahead=60 / rc=2pass / mbtree=0 / bitrate=2695 / ratetol=1.0 / qcomp=0.60 / qpmin=0 / qpmax=69 / qpstep=4 / cplxblur=20.0 / qblur=0.5 / vbv_maxrate=33500 / vbv_bufsize=30000 / nal_hrd=none / filler=0 / ip_ratio=1.30 / pb_ratio=1.20 / aq=3:0.80
  41. Default                     : Yes
  42. Forced                      : No
  43.  
  44. Audio
  45. ID                          : 2
  46. Format                      : AC-3
  47. Format/Info                 : Audio Coding 3
  48. Commercial name             : Dolby Digital
  49. Codec ID                    : A_AC3
  50. Duration                    : 2 h 16 min
  51. Bit rate mode               : Constant
  52. Bit rate                    : 384 kb/s
  53. Channel(s)                  : 6 channels
  54. Channel layout              : L R C LFE Ls Rs
  55. Sampling rate               : 48.0 kHz
  56. Frame rate                  : 31.250 FPS (1536 SPF)
  57. Bit depth                   : 16 bits
  58. Compression mode            : Lossy
  59. Stream size                 : 374 MiB (12%)
  60. Language                    : Korean
  61. Service kind                : Complete Main
  62. Default                     : No
  63. Forced                      : No
  64.  
  65. Text
  66. ID                          : 3
  67. Format                      : UTF-8
  68. Codec ID                    : S_TEXT/UTF8
  69. Codec ID/Info               : UTF-8 Plain Text
  70. Duration                    : 2 h 11 min
  71. Bit rate                    : 24 b/s
  72. Count of elements           : 926
  73. Stream size                 : 23.5 KiB (0%)
  74. Language                    : English
  75. Default                     : Yes
  76. Forced                      : No
  77.  
  78. Menu
  79. 00:00:00.000                : :00:00:00.000
  80. 00:10:09.708                : :00:10:09.708
  81. 00:20:26.750                : :00:20:26.750
  82. 00:29:07.708                : :00:29:07.708
  83. 00:38:23.250                : :00:38:23.250
  84. 00:48:05.542                : :00:48:05.542
  85. 01:00:10.917                : :01:00:10.917
  86. 01:15:59.083                : :01:15:59.083
  87. 01:25:44.292                : :01:25:44.292
  88. 01:33:48.333                : :01:33:48.333
  89. 01:44:57.750                : :01:44:57.750
  90. 01:55:34.125                : :01:55:34.125
  91. 02:12:26.125                : :02:12:26.125
  92.  
  93.  
View raw paste Reply