Author: Not specified Language: text
Description: Not specified Timestamp: 2018-08-08 17:03:52 +0000
View raw paste Child paste by: Not specified Reply
  1. General
  2. Unique ID                   : 206141218442524583198422248612535306771 (0x9B155AC2F162F864A228C9DC4EC98A13)
  3. Complete name               : E:\Deadpool.2.2018.The.Super.Duper.Cut.1080p.BluRay.x264.DD5.1-Pahe.in.mkv
  4. Format                      : Matroska
  5. Format version              : Version 4 / Version 2
  6. File size                   : 2.76 GiB
  7. Duration                    : 2 h 13 min
  8. Overall bit rate            : 2 946 kb/s
  9. Movie name                  : Deadpool 2 2018 The Super Duper Cut - Pahe.in
  10. Encoded date                : UTC 2018-08-08 16:37:17
  11. Writing application         : mkvmerge v15.0.0 ('Duel with the Devil') 64-bit
  12. Writing library             : libebml v1.3.5 + libmatroska v1.4.5
  13. Cover                       : Yes
  14. Attachments                 : cover.jpg
  15. EnCoDEd bY                  : Pahe.in™ Team
  16.  
  17. Video
  18. ID                          : 1
  19. Format                      : AVC
  20. Format/Info                 : Advanced Video Codec
  21. Format profile              : High@L4.1
  22. Format settings             : CABAC / 5 Ref Frames
  23. Format settings, CABAC      : Yes
  24. Format settings, ReFrames   : 5 frames
  25. Codec ID                    : V_MPEG4/ISO/AVC
  26. Duration                    : 2 h 13 min
  27. Bit rate                    : 2 545 kb/s
  28. Width                       : 1 920 pixels
  29. Height                      : 804 pixels
  30. Display aspect ratio        : 2.40:1
  31. Frame rate mode             : Constant
  32. Frame rate                  : 23.976 (24000/1001) FPS
  33. Color space                 : YUV
  34. Chroma subsampling          : 4:2:0
  35. Bit depth                   : 8 bits
  36. Scan type                   : Progressive
  37. Bits/(Pixel*Frame)          : 0.069
  38. Stream size                 : 2.38 GiB (86%)
  39. Writing library             : x264 core 152 r2851 ba24899
  40. Encoding settings           : cabac=1 / ref=5 / deblock=1:-3:-3 / analyse=0x3:0x133 / me=umh / subme=10 / psy=1 / psy_rd=1.00:0.15 / mixed_ref=1 / me_range=32 / chroma_me=1 / trellis=2 / 8x8dct=1 / cqm=0 / deadzone=21,11 / fast_pskip=0 / chroma_qp_offset=-3 / threads=18 / lookahead_threads=3 / sliced_threads=0 / nr=0 / decimate=0 / interlaced=0 / bluray_compat=0 / constrained_intra=0 / bframes=8 / b_pyramid=2 / b_adapt=2 / b_bias=0 / direct=3 / weightb=1 / open_gop=0 / weightp=2 / keyint=250 / keyint_min=23 / scenecut=40 / intra_refresh=0 / rc_lookahead=60 / rc=crf / mbtree=0 / crf=25.2 / qcomp=0.60 / qpmin=0 / qpmax=69 / qpstep=4 / vbv_maxrate=33500 / vbv_bufsize=29000 / crf_max=0.0 / nal_hrd=none / filler=0 / ip_ratio=1.30 / pb_ratio=1.20 / aq=3:0.70
  41. Default                     : Yes
  42. Forced                      : No
  43.  
  44. Audio
  45. ID                          : 2
  46. Format                      : AC-3
  47. Format/Info                 : Audio Coding 3
  48. Codec ID                    : A_AC3
  49. Duration                    : 2 h 13 min
  50. Bit rate mode               : Constant
  51. Bit rate                    : 384 kb/s
  52. Channel(s)                  : 6 channels
  53. Channel positions           : Front: L C R, Side: L R, LFE
  54. Sampling rate               : 48.0 kHz
  55. Frame rate                  : 31.250 FPS (1536 SPF)
  56. Bit depth                   : 16 bits
  57. Compression mode            : Lossy
  58. Stream size                 : 368 MiB (13%)
  59. Language                    : English
  60. Service kind                : Complete Main
  61. Default                     : No
  62. Forced                      : No
  63.  
  64. Text #1
  65. ID                          : 3
  66. Format                      : PGS
  67. Muxing mode                 : zlib
  68. Codec ID                    : S_HDMV/PGS
  69. Codec ID/Info               : Picture based subtitle format used on BDs/HD-DVDs
  70. Duration                    : 2 h 13 min
  71. Bit rate                    : 47.9 kb/s
  72. Count of elements           : 4852
  73. Stream size                 : 45.7 MiB (2%)
  74. Language                    : English
  75. Default                     : Yes
  76. Forced                      : No
  77.  
  78. Text #2
  79. ID                          : 4
  80. Format                      : UTF-8
  81. Codec ID                    : S_TEXT/UTF8
  82. Codec ID/Info               : UTF-8 Plain Text
  83. Duration                    : 2 h 11 min
  84. Bit rate                    : 62 b/s
  85. Count of elements           : 2126
  86. Stream size                 : 60.3 KiB (0%)
  87. Language                    : English
  88. Default                     : No
  89. Forced                      : No
  90.  
  91. Menu
  92. 00:00:00.000                : en:00:00:00.000
  93. 00:02:31.693                : en:00:02:31.693
  94. 00:07:55.517                : en:00:07:55.517
  95. 00:10:46.229                : en:00:10:46.229
  96. 00:14:21.194                : en:00:14:21.194
  97. 00:17:42.937                : en:00:17:42.937
  98. 00:19:10.775                : en:00:19:10.775
  99. 00:24:14.370                : en:00:24:14.370
  100. 00:27:11.630                : en:00:27:11.630
  101. 00:37:17.444                : en:00:37:17.444
  102. 00:42:11.821                : en:00:42:11.821
  103. 00:44:40.428                : en:00:44:40.428
  104. 00:49:30.926                : en:00:49:30.926
  105. 00:52:20.471                : en:00:52:20.471
  106. 00:56:47.613                : en:00:56:47.613
  107. 01:01:00.073                : en:01:01:00.073
  108. 01:04:47.050                : en:01:04:47.050

This paste is large and only partially shown.
View full paste

View raw paste Child paste by: Not specified Reply