Author: Not specified Language: text
Description: Not specified Timestamp: 2017-03-28 04:55:10 +0000
View raw paste Child paste by: Not specified Reply
  1. General
  2. Source                      : Rogue.One.2016.1080p.BluRay.REMUX.AVC.DTS-HD.MA.7.1-EPSiLON
  3. Complete name               : Rogue.One.2016.HQ.720p.BluRay.x264-Pahe.in.mkv
  4. Format                      : Matroska
  5. Format version              : Version 4 / Version 2
  6. File size                   : 1.46 GiB
  7. Duration                    : 2 h 13 min
  8. Overall bit rate            : 1 564 kb/s
  9. Movie name                  : Pahe.in - Rogue One (2016)
  10. Encoded date                : UTC 2017-03-22 14:34:54
  11. Writing application         : mkvmerge v9.6.0 ('Slave To Your Mind') 64bit
  12. Writing library             : libebml v1.3.4 + libmatroska v1.4.5
  13. Cover                       : Yes
  14. Attachments                 : cover.jpg
  15.  
  16. Video
  17. ID                          : 1
  18. Format                      : AVC
  19. Format/Info                 : Advanced Video Codec
  20. Format profile              : High@L4
  21. Format settings, CABAC      : Yes
  22. Format settings, ReFrames   : 12 frames
  23. Codec ID                    : V_MPEG4/ISO/AVC
  24. Duration                    : 2 h 13 min
  25. Bit rate                    : 1 400 kb/s
  26. Width                       : 1 280 pixels
  27. Height                      : 536 pixels
  28. Display aspect ratio        : 2.40:1
  29. Frame rate mode             : Constant
  30. Frame rate                  : 23.976 (24000/1001) FPS
  31. Color space                 : YUV
  32. Chroma subsampling          : 4:2:0
  33. Bit depth                   : 8 bits
  34. Scan type                   : Progressive
  35. Bits/(Pixel*Frame)          : 0.085
  36. Stream size                 : 1.31 GiB (90%)
  37. Title                       : https://pahe.in
  38. Writing library             : x264 core 148 r2721 72d53ab
  39. Encoding settings           : cabac=1 / ref=12 / deblock=1:-3:-3 / analyse=0x3:0x133 / me=umh / subme=11 / psy=1 / psy_rd=1.00:0.15 / mixed_ref=1 / me_range=32 / chroma_me=1 / trellis=2 / 8x8dct=1 / cqm=0 / deadzone=21,11 / fast_pskip=1 / chroma_qp_offset=-3 / threads=17 / lookahead_threads=2 / sliced_threads=0 / nr=0 / decimate=1 / interlaced=0 / bluray_compat=0 / constrained_intra=0 / bframes=8 / b_pyramid=2 / b_adapt=2 / b_bias=0 / direct=3 / weightb=1 / open_gop=0 / weightp=2 / keyint=250 / keyint_min=23 / scenecut=40 / intra_refresh=0 / rc_lookahead=60 / rc=2pass / mbtree=1 / bitrate=1400 / ratetol=1.0 / qcomp=0.70 / qpmin=0 / qpmax=69 / qpstep=4 / cplxblur=20.0 / qblur=0.5 / vbv_maxrate=20000 / vbv_bufsize=22500 / nal_hrd=none / filler=0 / ip_ratio=1.40 / aq=3:0.70
  40. Default                     : Yes
  41. Forced                      : No
  42.  
  43. Audio
  44. ID                          : 2
  45. Format                      : AAC
  46. Format/Info                 : Advanced Audio Codec
  47. Format profile              : LC
  48. Codec ID                    : A_AAC
  49. Duration                    : 2 h 13 min
  50. Bit rate                    : 151 kb/s
  51. Channel(s)                  : 2 channels
  52. Channel positions           : Front: L R
  53. Sampling rate               : 48.0 kHz
  54. Frame rate                  : 46.875 FPS (1024 spf)
  55. Compression mode            : Lossy
  56. Delay relative to video     : 9 ms
  57. Stream size                 : 144 MiB (10%)
  58. Language                    : English
  59. Default                     : No
  60. Forced                      : No
  61.  
  62. Text
  63. ID                          : 3
  64. Format                      : PGS
  65. Muxing mode                 : zlib
  66. Codec ID                    : S_HDMV/PGS
  67. Codec ID/Info               : Picture based subtitle format used on BDs/HD-DVDs
  68. Duration                    : 2 h 5 min
  69. Bit rate                    : 11.6 kb/s
  70. Count of elements           : 3666
  71. Stream size                 : 10.4 MiB (1%)
  72. Language                    : English
  73. Default                     : Yes
  74. Forced                      : No
  75.  
  76. Menu
  77. 00:00:00.000                : en:"He's Come For Us"
  78. 00:02:34.654                : en:Unfinished Business
  79. 00:07:46.466                : en:Jyn in Prison
  80. 00:08:42.814                : en:Ring of Kafrene
  81. 00:11:04.622                : en:An Urgent Message
  82. 00:12:21.199                : en:Wobani Prison Break
  83. 00:13:41.154                : en:Rebel Interrogation
  84. 00:17:19.914                : en:Mission Departure
  85. 00:20:09.542                : en:Saw Gerrera
  86. 00:21:54.772                : en:Krennic and Tarkin
  87. 00:23:47.092                : en:Jyn's Dream
  88. 00:24:31.386                : en:Scouting Jedha City
  89. 00:26:53.445                : en:Bor Gullet
  90. 00:27:46.623                : en:Guardians of The Whills
  91. 00:30:37.294                : en:Holy City Ambush
  92. 00:33:53.406                : en:"Let Them Pass"
  93. 00:37:11.271                : en:Saw's Catacombs
  94. 00:42:30.089                : en:Galen's Message
  95. 00:47:16.125                : en:Jedha Escape
  96. 00:51:04.144                : en:Tarkin Commands
  97. 00:52:23.724                : en:Race to Eadu
  98. 00:55:53.266                : en:Eadu Crash
  99. 00:59:48.251                : en:Scouting Eadu
  100. 01:02:07.807                : en:Krennic and Galen
  101. 01:05:25.505                : en:Attack on Eadu
  102. 01:10:24.095                : en:Eadu Aftermath
  103. 01:12:49.532                : en:Mustafar
  104. 01:16:28.459                : en:Jyn Before The Council

This paste is large and only partially shown.
View full paste

View raw paste Child paste by: Not specified Reply