Author: Not specified Language: text
Description: Not specified Timestamp: 2018-06-17 09:37:33 +0000
View raw paste Child paste by: Not specified Reply
  1. General
  2. Unique ID                   : 185920472913021478675401141642666809155 (0x8BDEFB08FB05B243BA51467684319743)
  3. Complete name               : D:\N\Forrest.Gump.1994.REMASTERED.1080p.BluRay.x264.DD5.1-Pahe.in.mkv
  4. Format                      : Matroska
  5. Format version              : Version 4 / Version 2
  6. File size                   : 2.53 GiB
  7. Duration                    : 2 h 22 min
  8. Overall bit rate            : 2 553 kb/s
  9. Movie name                  : Forrest Gump (1994)
  10. Encoded date                : UTC 2018-06-14 05:41:12
  11. Writing application         : mkvmerge v15.0.0 ('Duel with the Devil') 64-bit
  12. Writing library             : libebml v1.3.5 + libmatroska v1.4.5
  13. Cover                       : Yes
  14. Attachments                 : cover.jpg
  15. Encoded by                  : ʕ·ᴥ· ʔ Pahe.in
  16.  
  17. Video
  18. ID                          : 1
  19. Format                      : AVC
  20. Format/Info                 : Advanced Video Codec
  21. Format profile              : High@L4.1
  22. Format settings             : CABAC / 5 Ref Frames
  23. Format settings, CABAC      : Yes
  24. Format settings, ReFrames   : 5 frames
  25. Codec ID                    : V_MPEG4/ISO/AVC
  26. Duration                    : 2 h 22 min
  27. Bit rate                    : 2 157 kb/s
  28. Width                       : 1 920 pixels
  29. Height                      : 804 pixels
  30. Display aspect ratio        : 2.40:1
  31. Frame rate mode             : Constant
  32. Frame rate                  : 23.976 (24000/1001) FPS
  33. Color space                 : YUV
  34. Chroma subsampling          : 4:2:0
  35. Bit depth                   : 8 bits
  36. Scan type                   : Progressive
  37. Bits/(Pixel*Frame)          : 0.058
  38. Stream size                 : 2.14 GiB (84%)
  39. Writing library             : x264 core 152 r2851 ba24899
  40. Encoding settings           : cabac=1 / ref=5 / deblock=1:-3:-3 / analyse=0x3:0x133 / me=umh / subme=10 / psy=1 / psy_rd=1.00:0.15 / mixed_ref=1 / me_range=48 / chroma_me=1 / trellis=2 / 8x8dct=1 / cqm=0 / deadzone=21,11 / fast_pskip=0 / chroma_qp_offset=-3 / threads=18 / lookahead_threads=3 / sliced_threads=0 / nr=0 / decimate=0 / interlaced=0 / bluray_compat=0 / constrained_intra=0 / bframes=8 / b_pyramid=2 / b_adapt=2 / b_bias=0 / direct=3 / weightb=1 / open_gop=0 / weightp=2 / keyint=250 / keyint_min=23 / scenecut=40 / intra_refresh=0 / rc_lookahead=60 / rc=crf / mbtree=0 / crf=25.6 / qcomp=0.60 / qpmin=0 / qpmax=69 / qpstep=4 / vbv_maxrate=27500 / vbv_bufsize=25000 / crf_max=0.0 / nal_hrd=none / filler=0 / ip_ratio=1.30 / pb_ratio=1.20 / aq=1:1.00
  41. Default                     : Yes
  42. Forced                      : No
  43.  
  44. Audio
  45. ID                          : 2
  46. Format                      : AC-3
  47. Format/Info                 : Audio Coding 3
  48. Codec ID                    : A_AC3
  49. Duration                    : 2 h 22 min
  50. Bit rate mode               : Constant
  51. Bit rate                    : 384 kb/s
  52. Channel(s)                  : 6 channels
  53. Channel positions           : Front: L C R, Side: L R, LFE
  54. Sampling rate               : 48.0 kHz
  55. Frame rate                  : 31.250 FPS (1536 SPF)
  56. Bit depth                   : 16 bits
  57. Compression mode            : Lossy
  58. Delay relative to video     : 501 ms
  59. Stream size                 : 390 MiB (15%)
  60. Title                       : Encoded by Pahe.in
  61. Language                    : English
  62. Service kind                : Complete Main
  63. Default                     : Yes
  64. Forced                      : No
  65.  
  66. Text #1
  67. ID                          : 3
  68. Format                      : UTF-8
  69. Codec ID                    : S_TEXT/UTF8
  70. Codec ID/Info               : UTF-8 Plain Text
  71. Duration                    : 2 h 10 min
  72. Bit rate                    : 60 b/s
  73. Count of elements           : 1542
  74. Stream size                 : 57.5 KiB (0%)
  75. Language                    : English
  76. Default                     : No
  77. Forced                      : No
  78.  
  79. Text #2
  80. ID                          : 4
  81. Format                      : PGS
  82. Muxing mode                 : zlib
  83. Codec ID                    : S_HDMV/PGS
  84. Codec ID/Info               : Picture based subtitle format used on BDs/HD-DVDs
  85. Duration                    : 2 h 10 min
  86. Bit rate                    : 37.4 kb/s
  87. Count of elements           : 3084
  88. Stream size                 : 35.0 MiB (1%)
  89. Language                    : English
  90. Default                     : Yes
  91. Forced                      : No
  92.  
  93. Menu
  94. 00:00:00.000                : en:Chapter 1
  95. 00:06:43.569                : en:Chapter 2
  96. 00:12:24.577                : en:Chapter 3
  97. 00:19:56.945                : en:Chapter 4
  98. 00:31:13.705                : en:Chapter 5
  99. 00:40:40.187                : en:Chapter 6
  100. 00:44:18.113                : en:Chapter 7
  101. 00:56:34.474                : en:Chapter 8
  102. 01:03:32.266                : en:Chapter 9
  103. 01:13:34.076                : en:Chapter 10
  104. 01:17:02.826                : en:Chapter 11
  105. 01:23:52.277                : en:Chapter 12
  106. 01:34:59.944                : en:Chapter 13
  107. 01:38:55.596                : en:Chapter 14
  108. 01:43:52.893                : en:Chapter 15
  109. 01:51:28.306                : en:Chapter 16
  110. 01:58:54.710                : en:Chapter 17

This paste is large and only partially shown.
View full paste

View raw paste Child paste by: Not specified Reply