Slexy.org is shutting down and stopped accepting new Pastes on May 4th, 2021.
Existing Pastes will stop being available on or after May 10th, 2021.
Author: Not specified Language: text
Description: (v2) Timestamp: 2018-01-26 01:47:17 +0000
View raw paste Parent paste by: Not specified Reply
  1. Format                      : Matroska
  2. Format version              : Version 4 / Version 2
  3. File size                   : 2.27 GiB
  4. Duration                    : 2 h 12 min
  5. Overall bit rate            : 2 454 kb/s
  6. Movie name                  : The Battleship Island (2017)
  7. Encoded date                : UTC 2017-12-16 09:14:57
  8. Writing application         : mkvmerge v13.0.0 ('The Juggler') 64bit
  9. Writing library             : libebml v1.3.4 + libmatroska v1.4.5
  10. Cover                       : Yes
  11. Attachments                 : cover.jpg
  12. Encoded by                  : Pahe.inā?¢ Team
  13.  
  14. Video
  15. ID                          : 1
  16. Format                      : AVC
  17. Format/Info                 : Advanced Video Codec
  18. Format profile              : High@L4.1
  19. Format settings             : CABAC / 5 Ref Frames
  20. Format settings, CABAC      : Yes
  21. Format settings, ReFrames   : 5 frames
  22. Codec ID                    : V_MPEG4/ISO/AVC
  23. Duration                    : 2 h 12 min
  24. Bit rate                    : 2 276 kb/s
  25. Width                       : 1 920 pixels
  26. Height                      : 804 pixels
  27. Display aspect ratio        : 2.40:1
  28. Frame rate mode             : Constant
  29. Frame rate                  : 24.000 FPS
  30. Color space                 : YUV
  31. Chroma subsampling          : 4:2:0
  32. Bit depth                   : 8 bits
  33. Scan type                   : Progressive
  34. Bits/(Pixel*Frame)          : 0.061
  35. Stream size                 : 2.10 GiB (93%)
  36. Writing library             : x264 core 152 r2851 ba24899
  37. Encoding settings           : cabac=1 / ref=5 / deblock=1:-1:-1 / analyse=0x3:0x133 / me=umh / subme=10 / psy=1 / psy_rd=1.00:0.15 / mixed_ref=1 / me_range=32 / chroma_me=1 / trellis=2 / 8x8dct=1 / cqm=0 / deadzone=21,11 / fast_pskip=1 / chroma_qp_offset=-3 / threads=12 / lookahead_threads=1 / sliced_threads=0 / nr=0 / decimate=1 / interlaced=0 / bluray_compat=0 / constrained_intra=0 / bframes=3 / b_pyramid=2 / b_adapt=2 / b_bias=0 / direct=3 / weightb=1 / open_gop=0 / weightp=2 / keyint=250 / keyint_min=24 / scenecut=40 / intra_refresh=0 / rc_lookahead=60 / rc=crf / mbtree=1 / crf=24.3 / qcomp=0.60 / qpmin=0 / qpmax=69 / qpstep=4 / vbv_maxrate=15000 / vbv_bufsize=16500 / crf_max=0.0 / nal_hrd=none / filler=0 / ip_ratio=1.40 / aq=3:0.80
  38. Default                     : Yes
  39. Forced                      : No
  40.  
  41. Audio
  42. ID                          : 2
  43. Format                      : AAC
  44. Format/Info                 : Advanced Audio Codec
  45. Format profile              : HE-AAC / LC
  46. Format settings             : Explicit
  47. Codec ID                    : A_AAC-2
  48. Duration                    : 2 h 12 min
  49. Bit rate                    : 176 kb/s
  50. Channel(s)                  : 6 channels
  51. Channel positions           : Front: L C R, Side: L R, LFE
  52. Sampling rate               : 48.0 kHz / 24.0 kHz
  53. Frame rate                  : 23.438 FPS (1024 SPF)
  54. Compression mode            : Lossy
  55. Delay relative to video     : 31 ms
  56. Stream size                 : 167 MiB (7%)
  57. Language                    : Korean
  58. Default                     : No
  59. Forced                      : No
  60.  
  61. Text #1
  62. ID                          : 3
  63. Format                      : UTF-8
  64. Codec ID                    : S_TEXT/UTF8
  65. Codec ID/Info               : UTF-8 Plain Text
  66. Duration                    : 2 h 5 min
  67. Bit rate                    : 46 b/s
  68. Count of elements           : 1172
  69. Stream size                 : 42.9 KiB (0%)
  70. Language                    : English
  71. Default                     : No
  72. Forced                      : No
  73.  
  74. Text #2
  75. ID                          : 4
  76. Format                      : UTF-8
  77. Codec ID                    : S_TEXT/UTF8
  78. Codec ID/Info               : UTF-8 Plain Text
  79. Duration                    : 2 h 11 min
  80. Bit rate                    : 74 b/s
  81. Count of elements           : 1809
  82. Stream size                 : 72.1 KiB (0%)
  83. Language                    : Indonesian
  84. Default                     : Yes
  85. Forced                      : No
  86.  
  87. Menu
  88. 00:00:00.000                : en:00:00:00.000
  89. 00:17:40.083                : en:00:17:40.083
  90. 00:36:02.458                : en:00:36:02.458
  91. 00:52:31.542                : en:00:52:31.542
  92. 01:09:55.875                : en:01:09:55.875
  93. 01:25:31.208                : en:01:25:31.208
View raw paste Parent paste by: Not specified Reply