Slexy.org is shutting down and stopped accepting new Pastes on May 4th, 2021.
Existing Pastes will stop being available on or after May 10th, 2021.
Author: Not specified Language: text
Description: Not specified Timestamp: 2017-07-11 23:50:21 +0000
View raw paste Reply
  1. General
  2. Unique ID                   : 219840655904217959855520473585059996282 (0xA563C52D22BE6466AB1E549351D5A27A)
  3. Format                      : Matroska
  4. Format version              : Version 4 / Version 2
  5. File size                   : 1.84 GiB
  6. Duration                    : 1 h 37 min
  7. Overall bit rate            : 2 706 kb/s
  8. Movie name                  : Pahe.in - The Boss Baby (2017) BluRay 1080p
  9. Encoded date                : UTC 2017-07-11 13:16:01
  10. Writing application         : mkvmerge v9.6.0 ('Slave To Your Mind') 64bit
  11. Writing library             : libebml v1.3.4 + libmatroska v1.4.5
  12. Cover                       : Yes
  13. Attachments                 : cover.jpg
  14.  
  15. Video
  16. ID                          : 1
  17. Format                      : AVC
  18. Format/Info                 : Advanced Video Codec
  19. Format profile              : High@L4.1
  20. Format settings, CABAC      : Yes
  21. Format settings, RefFrames  : 5 frames
  22. Codec ID                    : V_MPEG4/ISO/AVC
  23. Duration                    : 1 h 37 min
  24. Bit rate                    : 2 304 kb/s
  25. Width                       : 1 920 pixels
  26. Height                      : 816 pixels
  27. Display aspect ratio        : 2.35:1
  28. Frame rate mode             : Constant
  29. Frame rate                  : 23.976 (24000/1001) FPS
  30. Color space                 : YUV
  31. Chroma subsampling          : 4:2:0
  32. Bit depth                   : 8 bits
  33. Scan type                   : Progressive
  34. Bits/(Pixel*Frame)          : 0.061
  35. Stream size                 : 1.57 GiB (85%)
  36. Writing library             : x264 core 148 r2721 72d53ab
  37. Encoding settings           : cabac=1 / ref=5 / deblock=1:-2:-2 / analyse=0x3:0x133 / me=umh / subme=11 / psy=1 / psy_rd=1.00:0.00 / mixed_ref=1 / me_range=32 / chroma_me=1 / trellis=2 / 8x8dct=1 / cqm=0 / deadzone=21,11 / fast_pskip=0 / chroma_qp_offset=-2 / threads=25 / lookahead_threads=4 / sliced_threads=0 / nr=0 / decimate=0 / interlaced=0 / bluray_compat=0 / constrained_intra=0 / bframes=8 / b_pyramid=2 / b_adapt=2 / b_bias=0 / direct=3 / weightb=1 / open_gop=0 / weightp=2 / keyint=250 / keyint_min=23 / scenecut=40 / intra_refresh=0 / rc_lookahead=60 / rc=crf / mbtree=0 / crf=24.4 / qcomp=0.60 / qpmin=0 / qpmax=69 / qpstep=4 / vbv_maxrate=40000 / vbv_bufsize=37500 / crf_max=0.0 / nal_hrd=none / filler=0 / ip_ratio=1.40 / pb_ratio=1.30 / aq=1:1.00
  38. Default                     : Yes
  39. Forced                      : No
  40.  
  41. Audio
  42. ID                          : 2
  43. Format                      : AC-3
  44. Format/Info                 : Audio Coding 3
  45. Format settings, Endianness : Big
  46. Codec ID                    : A_AC3
  47. Duration                    : 1 h 37 min
  48. Bit rate mode               : Constant
  49. Bit rate                    : 384 kb/s
  50. Channel(s)                  : 6 channels
  51. Channel positions           : Front: L C R, Side: L R, LFE
  52. Sampling rate               : 48.0 kHz
  53. Frame rate                  : 31.250 FPS (1536 SPF)
  54. Bit depth                   : 16 bits
  55. Compression mode            : Lossy
  56. Stream size                 : 268 MiB (14%)
  57. Language                    : English
  58. Service kind                : Complete Main
  59. Default                     : No
  60. Forced                      : No
  61.  
  62. Text #1
  63. ID                          : 3
  64. Format                      : PGS
  65. Muxing mode                 : zlib
  66. Codec ID                    : S_HDMV/PGS
  67. Codec ID/Info               : Picture based subtitle format used on BDs/HD-DVDs
  68. Duration                    : 1 h 36 min
  69. Bit rate                    : 15.8 kb/s
  70. Count of elements           : 4026
  71. Stream size                 : 10.9 MiB (1%)
  72. Language                    : English
  73. Default                     : Yes
  74. Forced                      : No
  75.  
  76. Text #2
  77. ID                          : 4
  78. Format                      : PGS
  79. Muxing mode                 : zlib
  80. Codec ID                    : S_HDMV/PGS
  81. Codec ID/Info               : Picture based subtitle format used on BDs/HD-DVDs
  82. Duration                    : 17 s 100 ms
  83. Bit rate                    : 9 110 b/s
  84. Count of elements           : 18
  85. Stream size                 : 19.0 KiB (0%)
  86. Language                    : English
  87. Default                     : No
  88. Forced                      : No
  89.  
  90. Menu
  91. 00:00:00.000                : en:Chapter 01
  92. 00:03:45.892                : en:Chapter 02
  93. 00:08:58.287                : en:Chapter 03
  94. 00:11:45.913                : en:Chapter 04
  95. 00:14:59.565                : en:Chapter 05
  96. 00:19:38.218                : en:Chapter 06
  97. 00:22:52.788                : en:Chapter 07
  98. 00:28:27.247                : en:Chapter 08
  99. 00:30:26.115                : en:Chapter 09
  100. 00:33:45.481                : en:Chapter 10
  101. 00:36:57.256                : en:Chapter 11
  102. 00:39:18.356                : en:Chapter 12
  103. 00:42:35.344                : en:Chapter 13
  104. 00:46:21.028                : en:Chapter 14
  105. 00:51:37.719                : en:Chapter 15
  106. 00:53:25.285                : en:Chapter 16
  107. 00:56:28.718                : en:Chapter 17
  108. 00:59:35.405                : en:Chapter 18
  109. 01:04:03.172                : en:Chapter 19
  110. 01:08:15.466                : en:Chapter 20

This paste is large and only partially shown.
View full paste

View raw paste Reply