Author: Not specified Language: text
Description: Not specified Timestamp: 2018-06-02 08:06:52 +0000
View raw paste Reply
  1. General
  2. Unique ID                                : 253034029000081665809441030275069362991 (0xBE5C94D2B3181F001D3CB44B4A57C32F)
  3. Complete name                            : The.Five.S01.1080i.BluRay.REMUX.AVC.DTS-HD.MA.5.1-EPSiLON/The.Five.S01E01.Episode.1.1080i.BluRay.REMUX.AVC.DTS-HD.MA.5.1-EPSiLON.mkv
  4. Format                                   : Matroska
  5. Format version                           : Version 4 / Version 2
  6. File size                                : 6.73 GiB
  7. Duration                                 : 44 min 33 s
  8. Overall bit rate mode                    : Variable
  9. Overall bit rate                         : 21.6 Mb/s
  10. Encoded date                             : UTC 2018-05-09 22:08:13
  11. Writing application                      : mkvmerge v23.0.0 ('The Bride Said No') 64-bit
  12. Writing library                          : libebml v1.3.6 + libmatroska v1.4.9
  13.  
  14. Video
  15. ID                                       : 1
  16. Format                                   : AVC
  17. Format/Info                              : Advanced Video Codec
  18. Format profile                           : High@L4.1
  19. Format settings                          : CABAC / 4 Ref Frames
  20. Format settings, CABAC                   : Yes
  21. Format settings, ReFrames                : 4 frames
  22. Codec ID                                 : V_MPEG4/ISO/AVC
  23. Duration                                 : 44 min 33 s
  24. Bit rate mode                            : Variable
  25. Bit rate                                 : 18.0 Mb/s
  26. Maximum bit rate                         : 25.0 Mb/s
  27. Width                                    : 1 920 pixels
  28. Height                                   : 1 080 pixels
  29. Display aspect ratio                     : 16:9
  30. Frame rate mode                          : Constant
  31. Frame rate                               : 25.000 FPS
  32. Standard                                 : PAL
  33. Color space                              : YUV
  34. Chroma subsampling                       : 4:2:0
  35. Bit depth                                : 8 bits
  36. Scan type                                : MBAFF
  37. Bits/(Pixel*Frame)                       : 0.347
  38. Stream size                              : 5.60 GiB (83%)
  39. Title                                    : MPEG-4 AVC Video / 17997 kbps / 1080i / 25 fps / 16:9 / High Profile 4.1
  40. Language                                 : English
  41. Default                                  : Yes
  42. Forced                                   : No
  43. Color range                              : Limited
  44. Color primaries                          : BT.709
  45. Transfer characteristics                 : BT.709
  46. Matrix coefficients                      : BT.709
  47.  
  48. Audio
  49. ID                                       : 2
  50. Format                                   : DTS
  51. Format/Info                              : Digital Theater Systems
  52. Format profile                           : MA / Core
  53. Codec ID                                 : A_DTS
  54. Duration                                 : 44 min 32 s
  55. Bit rate mode                            : Variable / Constant
  56. Bit rate                                 : 3 593 kb/s / 1 509 kb/s
  57. Channel(s)                               : 6 channels
  58. Channel positions                        : Front: L C R, Side: L R, LFE
  59. Sampling rate                            : 48.0 kHz
  60. Frame rate                               : 93.750 FPS (512 SPF)
  61. Bit depth                                : 24 bits
  62. Compression mode                         : Lossless / Lossy
  63. Stream size                              : 1.12 GiB (17%)
  64. Title                                    : DTS-HD Master Audio / 5.1 / 48 kHz / 3592 kbps / 24-bit
  65. Language                                 : English
  66. Default                                  : Yes
  67. Forced                                   : No
  68.  
  69. Text
  70. ID                                       : 3
  71. Format                                   : PGS
  72. Codec ID                                 : S_HDMV/PGS
  73. Codec ID/Info                            : Picture based subtitle format used on BDs/HD-DVDs
  74. Duration                                 : 42 min 59 s
  75. Bit rate                                 : 31.7 kb/s
  76. Count of elements                        : 906
  77. Stream size                              : 9.74 MiB (0%)
  78. Language                                 : German
  79. Default                                  : No
  80. Forced                                   : No
  81.  
  82. Menu
  83. 00:00:00.000                             : en:Chapter 1
  84. 00:09:51.760                             : en:Chapter 2
  85. 00:21:19.840                             : en:Chapter 3
  86. 00:29:20.560                             : en:Chapter 4
  87. 00:36:07.360                             : en:Chapter 5
View raw paste Reply